<?xml version="1.0" standalone="no"?>
<!DOCTYPE svg PUBLIC "-//W3C//DTD SVG 1.1//EN" "http://www.w3.org/Graphics/SVG/1.1/DTD/svg11.dtd" >
<svg xmlns="http://www.w3.org/2000/svg" xmlns:xlink="http://www.w3.org/1999/xlink" version="1.1">
<metadata>
Created by FontForge 20170731 at Tue Nov  3 12:31:21 2020
 By Aleksey,,,
Copyright (c) 2020 by atipo. All rights reserved.
</metadata>
<defs>
<font id="ArgestaDisplay-Regular" horiz-adv-x="0" >
  <font-face 
    font-family="Argesta Display"
    font-weight="400"
    font-stretch="normal"
    units-per-em="2048"
    panose-1="0 0 5 0 0 0 0 0 0 0"
    ascent="1536"
    descent="-512"
    x-height="983"
    cap-height="1434"
    bbox="-713 -512 2466 1923"
    underline-thickness="102"
    underline-position="-307"
    unicode-range="U+0020-2212"
  />
<missing-glyph horiz-adv-x="555" 
 />
    <glyph glyph-name="f_f" unicode="ff" horiz-adv-x="1280" 
d="M1092 1470q77 0 147 -32l-2 -277h-37l-72 205q-32 18 -73 18q-53 0 -86 -40.5t-29 -110.5l14 -250h209v-92h-209l2 -799l134 -59v-33h-390v37l101 49v805h-443l2 -799l134 -59v-33h-390v37l101 49v805h-113v65l113 27v23q0 200 77.5 332t213.5 132q77 0 147 -32l-2 -277
h-37l-72 205q-32 18 -73 18q-53 0 -86 -40.5t-29 -110.5l14 -250h443v23q0 200 77.5 332t213.5 132z" />
    <glyph glyph-name="f_f_i" unicode="ffi" horiz-adv-x="1818" 
d="M1628 86l98 -53v-33h-350v37l101 49v805h-523l2 -799l134 -59v-33h-390v37l101 49v805h-443l2 -799l134 -59v-33h-390v37l101 49v805h-113v65l113 27v23q0 200 77.5 332t213.5 132q77 0 147 -32l-2 -277h-37l-72 205q-32 18 -73 18q-53 0 -86 -40.5t-29 -110.5l14 -250
h443v23q0 200 77.5 332t213.5 132q77 0 147 -32l-2 -277h-37l-72 205q-32 18 -73 18q-53 0 -86 -40.5t-29 -110.5l14 -250h426l248 8v-905zM1546 1231q-44 0 -76 32t-32 76t32 76.5t76 32.5q43 0 75 -32.5t32 -76.5t-32 -76t-75 -32z" />
    <glyph glyph-name="f_i" unicode="fi" horiz-adv-x="1222" 
d="M1032 86l98 -53v-33h-350v37l101 49v805h-523l2 -799l134 -59v-33h-390v37l101 49v805h-113v65l113 27v23q0 200 77.5 332t213.5 132q77 0 147 -32l-2 -277h-37l-72 205q-32 18 -73 18q-53 0 -86 -40.5t-29 -110.5l14 -250h426l248 8v-905zM950 1231q-44 0 -76 32t-32 76
t32 76.5t76 32.5q43 0 75 -32.5t32 -76.5t-32 -76t-75 -32z" />
    <glyph glyph-name=".notdef" horiz-adv-x="555" 
 />
    <glyph glyph-name=".null" 
 />
    <glyph glyph-name="nonmarkingreturn" horiz-adv-x="682" 
 />
    <glyph glyph-name="space" unicode=" " horiz-adv-x="555" 
 />
    <glyph glyph-name="exclam" unicode="!" horiz-adv-x="589" 
d="M268 367l-65 1067h180l-64 -1067h-51zM295 -37q-46 0 -78.5 32.5t-32.5 78.5t32.5 78t78.5 32t78.5 -32t32.5 -78t-32.5 -78.5t-78.5 -32.5z" />
    <glyph glyph-name="quotedbl" unicode="&#x22;" horiz-adv-x="749" 
d="M195 911l-72 523h182l-72 -523h-38zM516 911l-72 523h183l-72 -523h-39z" />
    <glyph glyph-name="numbersign" unicode="#" horiz-adv-x="964" 
d="M842 868h-176l-33 -196h209v-64h-219l-50 -289h-67l49 289h-199l-49 -289h-67l49 289h-166v64h176l33 196h-209v64h219l49 289h68l-49 -289h198l49 289h68l-49 -289h166v-64zM565 672l33 196h-199l-32 -196h198z" />
    <glyph glyph-name="dollar" unicode="$" horiz-adv-x="1122" 
d="M598 856q208 -94 304.5 -201.5t96.5 -271.5q0 -185 -133 -302.5t-362 -117.5h-25l-16 -172h-72l17 176q-138 10 -316 70l2 346h37l105 -238q83 -68 180 -92l57 658l-2 2q-74 32 -129 66t-103 80.5t-73 108.5t-25 138q0 154 113.5 254.5t288.5 109.5l12 142h72l-13 -142
q144 -7 291 -61l-6 -328h-37l-104 242q-66 49 -152 66l-45 -517q5 -3 18.5 -8t18.5 -8zM291 1159q0 -93 45.5 -147.5t155.5 -108.5l43 492q-107 -2 -175.5 -67.5t-68.5 -168.5zM504 43q145 0 236 78t91 217q0 121 -73.5 198.5t-214.5 143.5l-58 -637h19z" />
    <glyph glyph-name="percent" unicode="%" horiz-adv-x="1515" 
d="M299 -100l831 1634h87l-828 -1634h-90zM389 770q-85 0 -147 50t-91 128.5t-28 171.5q2 146 71.5 248t194.5 102q85 0 147 -50t91 -128.5t28 -171.5q-2 -146 -71.5 -248t-194.5 -102zM389 823q72 0 114 86.5t42 210.5q0 126 -42 212.5t-114 86.5t-114 -86.5t-42 -212.5
q0 -124 42 -210.5t114 -86.5zM1126 -37q-85 0 -147 50t-91 128.5t-28 171.5q2 147 71.5 249t194.5 102q85 0 147 -50.5t91.5 -129t28.5 -171.5q-2 -146 -72 -248t-195 -102zM1126 16q72 0 114 86.5t42 210.5q0 126 -42 212.5t-114 86.5q-155 0 -155 -299q0 -125 41.5 -211
t113.5 -86z" />
    <glyph glyph-name="ampersand" unicode="&#x26;" horiz-adv-x="1447" 
d="M578 -37q-209 0 -342.5 116t-133.5 322q0 154 89.5 260t238.5 142q-113 29 -193.5 118t-80.5 222q0 145 114 236t283 91q73 0 140 -10.5t102 -21t90 -29.5l-6 -328h-37l-109 252q-78 72 -180 72q-104 0 -169 -75t-65 -193q0 -141 90 -230.5t234 -89.5h703l-3 -282h-36
l-76 208h-197v-364q0 -190 -119.5 -303t-336.5 -113zM578 23q149 2 216.5 76.5t67.5 242.5v401h-215q-79 0 -141.5 -18.5t-113 -58.5t-78 -110t-27.5 -167q0 -175 79 -270.5t212 -95.5z" />
    <glyph glyph-name="quotesingle" unicode="'" horiz-adv-x="428" 
d="M195 911l-72 523h182l-72 -523h-38z" />
    <glyph glyph-name="parenleft" unicode="(" horiz-adv-x="997" 
d="M834 -395q-150 38 -279.5 125.5t-225.5 211.5t-151 287.5t-55 343.5t55 343.5t151 287.5t225.5 212t279.5 126v-45q-239 -84 -395 -337t-156 -587t156 -586.5t395 -336.5v-45z" />
    <glyph glyph-name="parenright" unicode=")" horiz-adv-x="997" 
d="M164 -395v45q239 84 395 336.5t156 586.5t-156 587t-395 337v45q150 -38 279.5 -126t225 -212t150.5 -287t55 -344q0 -180 -55 -343.5t-150.5 -287.5t-225 -211.5t-279.5 -125.5z" />
    <glyph glyph-name="asterisk" unicode="*" horiz-adv-x="788" 
d="M332 731l26 283l-233 -166l-64 104l263 131l-263 125l66 111l231 -166l-26 281h127l-27 -281l230 166l65 -111l-262 -125l262 -131l-63 -104l-232 166l23 -283h-123z" />
    <glyph glyph-name="plus" unicode="+" horiz-adv-x="1058" 
d="M477 78v465h-467v106h467v463h107v-463h465v-106h-465v-465h-107z" />
    <glyph glyph-name="comma" unicode="," horiz-adv-x="450" 
d="M82 -303l100 475h187v-51l-234 -424h-53z" />
    <glyph glyph-name="hyphen" unicode="-" horiz-adv-x="579" 
d="M61 512v90h457v-90h-457z" />
    <glyph glyph-name="period" unicode="." horiz-adv-x="385" 
d="M193 -37q-46 0 -78.5 32.5t-32.5 78.5t32.5 78t78.5 32t78 -32t32 -78t-32 -78.5t-78 -32.5z" />
    <glyph glyph-name="slash" unicode="/" horiz-adv-x="964" 
d="M82 -193l713 1737h88l-709 -1737h-92z" />
    <glyph glyph-name="zero" unicode="0" horiz-adv-x="1208" 
d="M604 -37q-146 0 -252 101t-157.5 269.5t-51.5 383.5t51.5 383.5t157.5 269t252 100.5t252 -100.5t157.5 -269t51.5 -383.5t-51.5 -383.5t-157.5 -269.5t-252 -101zM604 23q291 0 291 694t-291 694t-291 -694t291 -694z" />
    <glyph glyph-name="one" unicode="1" horiz-adv-x="860" 
d="M217 0v37l168 49v1188h-201v39l336 121h19v-1348l157 -53v-33h-479z" />
    <glyph glyph-name="two" unicode="2" horiz-adv-x="1157" 
d="M164 0v135l493 582q166 198 166 393q0 131 -74.5 213t-191.5 82q-124 0 -207 -72l-108 -252h-37l-6 328q176 61 358 61q195 0 315.5 -95t120.5 -275q0 -125 -61 -236t-170 -225l-465 -485h557l82 155h37v-309h-809z" />
    <glyph glyph-name="three" unicode="3" horiz-adv-x="1140" 
d="M481 -37q-40 0 -80 3.5t-66.5 7t-64 12t-51.5 12t-52 14.5t-44 13l6 327h37l108 -258q77 -71 207 -71q89 0 161.5 52.5t111.5 137.5t39 184q0 101 -32 170t-94 107t-138.5 53.5t-180.5 15.5v74h47q149 0 257 91t108 229q0 112 -67.5 190t-180.5 78q-60 0 -115 -19
t-92 -53l-108 -252h-37l-6 328q172 61 358 61q179 0 295.5 -82t116.5 -225q0 -148 -86.5 -242t-229.5 -118q160 -23 264.5 -136t104.5 -266q0 -186 -137.5 -312t-358.5 -126z" />
    <glyph glyph-name="four" unicode="4" horiz-adv-x="1081" 
d="M541 0v37l135 49v324h-594v94l627 930h120v-930h170v-94h-170v-324l123 -53v-33h-411zM182 502h494v723z" />
    <glyph glyph-name="five" unicode="5" horiz-adv-x="1148" 
d="M489 -37q-147 0 -325 82l6 291h37l108 -248q77 -55 174 -55q84 0 147.5 31.5t100.5 87t55.5 124.5t18.5 150q0 165 -86.5 278t-218.5 113q-138 0 -225 -108l-68 41l14 684h670v-158h-590l-10 -457q94 86 254 86q122 0 222 -60.5t156 -163.5t56 -226q0 -133 -61.5 -245
t-176 -179.5t-258.5 -67.5z" />
    <glyph glyph-name="six" unicode="6" horiz-adv-x="1183" 
d="M602 -37q-80 0 -147 30t-113.5 82.5t-82 118.5t-55.5 143t-30 150.5t-10 145.5q0 172 33.5 321.5t97 265.5t165 183t228.5 67q132 0 264 -61l-6 -272h-37l-90 229q-59 39 -135 39q-61 0 -112.5 -29.5t-87 -81t-62.5 -114.5t-43.5 -138t-25.5 -143t-13 -137
q101 123 264 123q186 0 301 -129.5t115 -327.5q0 -199 -118 -332t-300 -133zM616 23q67 0 115.5 34.5t74 94.5t37 128t11.5 148q0 71 -17 138.5t-49 125t-86 92.5t-122 35q-138 0 -240 -135q-4 -58 -4 -98q0 -125 15.5 -224.5t47.5 -177t87 -119.5t130 -42z" />
    <glyph glyph-name="seven" unicode="7" horiz-adv-x="1179" 
d="M360 0q0 155 37 314t94.5 290t137.5 262t154.5 226.5t158.5 187.5h-661l-111 -172h-37l14 326h900v-119q-102 -116 -192 -258t-166 -310.5t-120.5 -362.5t-44.5 -384h-164z" />
    <glyph glyph-name="eight" unicode="8" horiz-adv-x="1196" 
d="M713 799q87 -43 145 -81.5t104.5 -88t68.5 -110.5t22 -138q0 -181 -130.5 -299.5t-338.5 -118.5q-191 0 -316 103.5t-125 265.5q0 76 25 141t71.5 115.5t100 88.5t123.5 73q-131 81 -189.5 171t-58.5 205q0 153 111 248.5t278 95.5q156 0 267.5 -89t111.5 -234
q0 -230 -270 -348zM354 1157q0 -99 64 -171.5t231 -156.5q100 59 152.5 140.5t52.5 173.5q0 119 -71 190.5t-183 71.5q-107 0 -176.5 -67.5t-69.5 -180.5zM586 23q139 0 230 87.5t91 215.5q0 53 -15 96.5t-40 77.5t-70 67.5t-91.5 59.5t-117.5 61q-22 11 -32 17
q-267 -135 -267 -375q0 -124 84 -215.5t228 -91.5z" />
    <glyph glyph-name="nine" unicode="9" horiz-adv-x="1183" 
d="M496 -37q-131 0 -265 62l7 272h36l91 -229q59 -39 135 -39q61 0 112.5 29.5t87 81t62.5 114.5t43.5 138t25.5 143t13 137q-101 -123 -264 -123q-186 0 -301 129.5t-115 327.5q0 199 118 331.5t300 132.5q80 0 147 -30t113.5 -82.5t82 -118.5t55.5 -142.5t30 -150
t10 -145.5q0 -172 -33.5 -322t-97 -266t-165 -183t-228.5 -67zM604 614q137 0 240 136q4 58 4 98q0 125 -15.5 224.5t-48 177t-87.5 119.5t-130 42q-67 0 -115 -34.5t-73.5 -94.5t-37 -128t-11.5 -148q0 -96 28 -182.5t92.5 -148t153.5 -61.5z" />
    <glyph glyph-name="colon" unicode=":" horiz-adv-x="385" 
d="M193 735q-46 0 -78.5 32.5t-32.5 78.5t32.5 78t78.5 32t78 -32t32 -78t-32 -78.5t-78 -32.5zM193 -37q-46 0 -78.5 32.5t-32.5 78.5t32.5 78t78.5 32t78 -32t32 -78t-32 -78.5t-78 -32.5z" />
    <glyph glyph-name="semicolon" unicode=";" horiz-adv-x="589" 
d="M295 735q-46 0 -78.5 32.5t-32.5 78.5t32.5 78t78.5 32t78.5 -32t32.5 -78t-32.5 -78.5t-78.5 -32.5zM104 -303l101 475h186v-51l-233 -424h-54z" />
    <glyph glyph-name="less" unicode="&#x3c;" horiz-adv-x="1058" 
d="M1049 68l-1039 469v125l1039 471v-121l-926 -412l926 -412v-120z" />
    <glyph glyph-name="equal" unicode="=" horiz-adv-x="1058" 
d="M10 698v107h1039v-107h-1039zM10 385v104h1039v-104h-1039z" />
    <glyph glyph-name="greater" unicode="&#x3e;" horiz-adv-x="1058" 
d="M10 68v120l926 412l-926 412v121l1039 -471v-125z" />
    <glyph glyph-name="question" unicode="?" horiz-adv-x="919" 
d="M332 367q0 127 30 226.5t72 162t84.5 117.5t72.5 123t30 149q0 108 -64.5 182t-165.5 74q-72 0 -129 -47l-96 -213h-37l-6 268q149 61 297 61q163 0 270 -86.5t107 -228.5q0 -77 -21.5 -138t-56 -103t-76 -80.5t-83.5 -80.5t-76.5 -91t-56 -124.5t-21.5 -170.5h-74z
M371 -37q-46 0 -78.5 32.5t-32.5 78.5t32.5 78t78.5 32t78 -32t32 -78t-32 -78.5t-78 -32.5z" />
    <glyph glyph-name="at" unicode="@" horiz-adv-x="1888" 
d="M821 -418q-203 0 -360.5 77.5t-247.5 225.5t-90 346q0 178 47 342.5t134 296.5t205 230t266.5 151.5t311.5 53.5q157 0 286.5 -49.5t214.5 -135t131 -198.5t46 -240q0 -192 -72 -354.5t-194 -256.5t-264 -94q-88 0 -130.5 48.5t-25.5 132.5l15 69q-52 -105 -137.5 -177.5
t-172.5 -72.5q-123 0 -185 76t-62 211q0 161 71 312t189.5 245t249.5 94q68 0 114 -32t60 -74l139 92l-154 -708q-43 -152 64 -152q80 0 160.5 88.5t133 238t52.5 308.5q0 75 -18 149t-60.5 147t-104 128.5t-157 90t-211.5 34.5q-168 0 -317.5 -84t-251.5 -220.5t-161 -311
t-59 -355.5q0 -280 155 -435t423 -155q234 0 459 115l28 -66q-253 -131 -520 -131zM813 51q61 0 129.5 63.5t119.5 151t75 170.5l57 287q-7 49 -41.5 88t-89.5 39q-70 0 -138.5 -53t-118.5 -136t-81 -189t-31 -208q0 -120 31 -166.5t88 -46.5z" />
    <glyph glyph-name="A" unicode="A" horiz-adv-x="1449" 
d="M1292 86l97 -53v-33h-418v33l131 53l-146 360h-536l-129 -360l143 -53v-33h-373v33l121 53l445 1178l-70 170h174zM453 535h467l-248 612z" />
    <glyph glyph-name="B" unicode="B" horiz-adv-x="1329" 
d="M143 0v37l111 49v1262l-111 49v37h592q194 0 310 -86.5t116 -235.5t-89.5 -237t-231.5 -111q82 -9 152.5 -37.5t125.5 -75t87 -116t32 -154.5q0 -111 -59 -199t-157 -135t-214 -47h-664zM426 799h244q152 0 230.5 73t78.5 197q0 131 -75.5 206t-215.5 75h-262v-551z
M430 84h258q176 0 271.5 78t95.5 239q0 150 -110.5 237.5t-274.5 82.5h-240v-637z" />
    <glyph glyph-name="C" unicode="C" horiz-adv-x="1404" 
d="M827 -37q-155 0 -285 52.5t-222.5 148.5t-144.5 238t-52 315q0 172 55 315t150 238t223.5 147.5t275.5 52.5q122 0 215 -14t207 -47l-6 -328h-37l-125 242q-112 74 -252 74q-126 0 -225.5 -52t-163 -144t-96.5 -215t-33 -269q0 -119 16.5 -218t55 -184t97.5 -143.5
t147.5 -91.5t201.5 -33q57 0 135 21t130 57l125 227h36l7 -319q-241 -70 -435 -70z" />
    <glyph glyph-name="D" unicode="D" horiz-adv-x="1509" 
d="M143 0v37l111 49v1260l-111 49v39h537q177 0 314 -55.5t221.5 -153.5t127.5 -226t43 -280q0 -118 -28 -224.5t-85.5 -197.5t-140 -157t-198.5 -103t-254 -37h-537zM426 88h233q108 0 197.5 34.5t151.5 94t105 140.5t63 172t20 190q0 631 -537 631h-233v-1262z" />
    <glyph glyph-name="E" unicode="E" horiz-adv-x="1280" 
d="M145 0v37l111 49l-2 1262l-111 49v37h938l31 -330h-37l-135 246h-512v-557l475 10v-107l-475 17v-625h588l125 260h37l-21 -348h-1012z" />
    <glyph glyph-name="F" unicode="F" horiz-adv-x="1214" 
d="M145 0v37l111 49l-2 1262l-111 49v37h938l31 -330h-37l-135 246h-512v-578l475 10v-106l-475 16v-600l147 -59v-33h-430z" />
    <glyph glyph-name="G" unicode="G" horiz-adv-x="1542" 
d="M807 -37q-212 0 -368 95t-236 264.5t-80 394.5q0 172 56.5 315t155.5 238t233.5 147.5t289.5 52.5q217 0 432 -61l-6 -328h-37l-125 236q-130 74 -282 74q-168 0 -289 -89t-180.5 -239.5t-59.5 -345.5q0 -112 18.5 -210.5t58 -183.5t98 -146t143 -95.5t188.5 -34.5
q92 0 181.5 30.5t152.5 78.5v465l-211 59v37h490v-33l-107 -53v-535q-205 -133 -516 -133z" />
    <glyph glyph-name="H" unicode="H" horiz-adv-x="1570" 
d="M143 0v37l111 49v1262l-111 49v37h389v-33l-106 -53v-535h723v535l-111 49v37h389v-33l-106 -53v-1262l106 -53v-33h-389v37l111 49v635h-723v-635l106 -53v-33h-389z" />
    <glyph glyph-name="I" unicode="I" horiz-adv-x="675" 
d="M143 0v37l111 49v1262l-111 49v37h389v-33l-106 -53v-1262l106 -53v-33h-389z" />
    <glyph glyph-name="J" unicode="J" horiz-adv-x="909" 
d="M319 -37q-106 0 -237 57l2 287h37l94 -246q45 -30 107 -30q51 0 86 24t54.5 72.5t27.5 111t8 148.5v961l-136 49v37h414v-33l-106 -53v-967q0 -109 -28 -191.5t-77.5 -131t-111 -72t-134.5 -23.5z" />
    <glyph glyph-name="K" unicode="K" horiz-adv-x="1421" 
d="M143 0v37l111 49v1262l-111 49v37h392v-33l-107 -53l-2 -1262l109 -53v-33h-392zM899 0v37l113 45l-561 692l555 574l-132 49v37h439v-33l-148 -53l-553 -506l627 -756l121 -53v-33h-461z" />
    <glyph glyph-name="L" unicode="L" horiz-adv-x="1222" 
d="M143 0v37l111 49v1262l-111 49v37h389v-33l-106 -53v-1260h522l125 260h37l-20 -348h-947z" />
    <glyph glyph-name="M" unicode="M" horiz-adv-x="1736" 
d="M776 -2l-432 1288v-1200l111 -53v-33h-312v37l111 49v1262l-111 49v37h328l391 -1166l410 1166h321v-37l-110 -49v-1262l108 -53v-33h-387v37l111 49v1214l-459 -1302h-80z" />
    <glyph glyph-name="N" unicode="N" horiz-adv-x="1468" 
d="M1159 -18l-831 1323v-1219l121 -53v-33h-326v37l110 49v1262l-104 49v37h315l697 -1100v1014l-121 49v37h326v-33l-111 -53v-1366h-76z" />
    <glyph glyph-name="O" unicode="O" horiz-adv-x="1548" 
d="M774 -37q-196 0 -345.5 98.5t-228.5 269.5t-77 386q-2 214 77 385t228.5 269.5t345.5 98.5t345.5 -98.5t228.5 -269.5t77 -385q2 -215 -77 -386t-228.5 -269.5t-345.5 -98.5zM774 41q101 0 180.5 34.5t132.5 94.5t88 146.5t50.5 185.5t15.5 215t-15.5 214.5t-50.5 185
t-88 147t-132.5 95t-180.5 34.5t-180.5 -34.5t-132.5 -95t-88 -147t-50.5 -185t-15.5 -214.5t15.5 -215t50.5 -185.5t88 -146.5t132.5 -94.5t180.5 -34.5z" />
    <glyph glyph-name="P" unicode="P" horiz-adv-x="1255" 
d="M143 0v37l111 49v1262l-111 49v37h553q204 0 330.5 -104.5t126.5 -282.5q0 -175 -129 -291.5t-328 -116.5h-270v-547l131 -59v-33h-414zM426 723h215q158 0 244 87.5t86 236.5q0 166 -81 234.5t-249 68.5h-215v-627z" />
    <glyph glyph-name="Q" unicode="Q" horiz-adv-x="1548" 
d="M1425 717q2 -213 -75 -382.5t-223.5 -268.5t-338.5 -103q99 -106 256 -171.5t326 -65.5l-88 -160q-96 13 -203 65t-204.5 141.5t-143.5 192.5q-184 10 -324 110.5t-213 267.5t-71 374q-2 214 77 385t228.5 269.5t345.5 98.5t345.5 -98.5t228.5 -269.5t77 -385zM774 41
q101 0 180.5 34.5t132.5 94.5t88 146.5t50.5 185.5t15.5 215t-15.5 214.5t-50.5 185t-88 147t-132.5 95t-180.5 34.5t-180.5 -34.5t-132.5 -95t-88 -147t-50.5 -185t-15.5 -214.5t15.5 -215t50.5 -185.5t88 -146.5t132.5 -94.5t180.5 -34.5z" />
    <glyph glyph-name="R" unicode="R" horiz-adv-x="1406" 
d="M143 0v37l111 49v1262l-111 49v37h596q190 0 311 -113.5t121 -292.5q0 -76 -31.5 -146.5t-88 -125.5t-143.5 -88t-191 -33q79 -22 138.5 -73.5t119.5 -137.5l192 -281q36 -52 73 -75.5t106 -30.5v-37h-293l-301 463q-55 84 -122 125t-157 41h-53v-537l127 -59v-33h-404z
M420 705h274q74 0 133.5 29.5t94.5 77.5t53 103.5t18 112.5q0 150 -74.5 236t-224.5 86h-274v-645z" />
    <glyph glyph-name="S" unicode="S" horiz-adv-x="1122" 
d="M504 -37q-88 0 -172 13t-130 26t-110 35l2 346h37l105 -238q122 -102 268 -102q145 0 236 78t91 217q0 58 -19 107.5t-49 85.5t-79.5 70.5t-97 58.5t-115.5 53q-74 32 -129 66t-103 80.5t-73 108.5t-25 138q0 162 123 263t309 101q160 0 332 -61l-6 -328h-37l-104 242
q-99 72 -217 72q-110 0 -180 -65.5t-70 -170.5q0 -47 12.5 -83.5t33 -64t62 -55t84 -48.5t115.5 -52q208 -94 304.5 -201.5t96.5 -271.5q0 -185 -133 -302.5t-362 -117.5z" />
    <glyph glyph-name="T" unicode="T" horiz-adv-x="1359" 
d="M463 0v37l131 49l-2 1266h-324l-118 -250h-37v332h1134l-2 -332h-37l-116 250h-326v-1266l127 -53v-33h-430z" />
    <glyph glyph-name="U" unicode="U" horiz-adv-x="1495" 
d="M756 -37q-244 0 -383.5 126t-139.5 366v893l-110 49v37h389v-33l-106 -53v-908q0 -185 90.5 -289t267.5 -104q192 0 296.5 104t104.5 289v908l-110 49v37h317v-33l-106 -53v-893q0 -233 -138.5 -362.5t-371.5 -129.5z" />
    <glyph glyph-name="V" unicode="V" horiz-adv-x="1402" 
d="M651 -16l-501 1364l-89 49v37h390v-33l-121 -53l399 -1096l422 1096l-135 53v33h325v-37l-88 -49l-532 -1364h-70z" />
    <glyph glyph-name="W" unicode="W" horiz-adv-x="1961" 
d="M631 -16l-51 2l-430 1362l-89 49v37h398v-33l-129 -53l319 -1043l273 795l-82 248l-95 49v37h381v-33l-106 -53l321 -1067l353 1067l-135 53v33h342v-37l-97 -49l-471 -1364h-63l-309 977z" />
    <glyph glyph-name="X" unicode="X" horiz-adv-x="1325" 
d="M61 0v37l95 49l411 653l-387 609l-88 49v37h400v-33l-121 -53l315 -490l307 490l-129 53v33h330v-37l-88 -49l-365 -580l443 -682l80 -49v-37h-400v33l121 53l-364 561l-353 -561l164 -53v-33h-371z" />
    <glyph glyph-name="Y" unicode="Y" horiz-adv-x="1359" 
d="M485 0v37l111 49v516l-446 746l-89 49v37h402v-33l-121 -53l391 -648l367 648l-150 53v33h348v-37l-84 -49l-446 -740v-522l117 -53v-33h-400z" />
    <glyph glyph-name="Z" unicode="Z" horiz-adv-x="1261" 
d="M92 0v72l850 1280h-608l-129 -250h-37v332h960v-101l-823 -1249l660 2l137 266h37v-352h-1047z" />
    <glyph glyph-name="bracketleft" unicode="[" horiz-adv-x="698" 
d="M123 -395v1937h412v-37l-259 -65v-1733l259 -65v-37h-412z" />
    <glyph glyph-name="backslash" unicode="\" horiz-adv-x="964" 
d="M791 -193l-709 1737h88l713 -1737h-92z" />
    <glyph glyph-name="bracketright" unicode="]" horiz-adv-x="698" 
d="M164 -395v37l258 65v1733l-258 65v37h411v-1937h-411z" />
    <glyph glyph-name="asciicircum" unicode="^" horiz-adv-x="962" 
d="M61 705l369 729h102l369 -729h-125l-295 602l-295 -602h-125z" />
    <glyph glyph-name="underscore" unicode="_" horiz-adv-x="1024" 
d="M-20 -422v123h1064v-123h-1064z" />
    <glyph glyph-name="grave" unicode="`" horiz-adv-x="653" 
d="M532 1165l-430 178l56 127h28l365 -268z" />
    <glyph glyph-name="a" unicode="a" horiz-adv-x="1062" 
d="M424 -37q-157 0 -244.5 76.5t-87.5 212.5q0 90 54.5 163t145.5 119t204 70.5t235 24.5q0 138 -70.5 214.5t-195.5 76.5q-88 0 -156.5 -41.5t-111.5 -112.5l-68 45q114 209 354 209q187 0 293.5 -111.5t106.5 -308.5v-514l98 -53v-33h-233l-11 141q-37 -72 -116.5 -125
t-196.5 -53zM459 45q109 0 190.5 89.5t81.5 203.5v225q-110 -9 -192 -28t-148 -53.5t-100.5 -90.5t-34.5 -133q0 -98 55 -155.5t148 -57.5z" />
    <glyph glyph-name="b" unicode="b" horiz-adv-x="1171" 
d="M592 -37q-158 0 -287 103l-74 -86h-45l-6 1368l-98 51v35l254 10v-539q118 115 291 115q201 0 332 -148.5t131 -363.5q0 -152 -63 -276.5t-177 -196.5t-258 -72zM592 41q147 0 232 128.5t85 326.5q0 119 -33 218.5t-106.5 165.5t-177.5 66q-77 0 -144.5 -37t-111.5 -92
v-672q107 -104 256 -104z" />
    <glyph glyph-name="c" unicode="c" horiz-adv-x="1073" 
d="M600 -37q-223 0 -370.5 142t-147.5 380q0 231 145.5 383t372.5 152q44 0 85.5 -3t83 -9.5t62.5 -10.5t63 -13.5t46 -10.5l-2 -322h-37l-88 228q-86 77 -217 77q-65 0 -120.5 -27.5t-94 -73t-65.5 -104.5t-39.5 -122t-12.5 -125q0 -195 96 -323t261 -128q77 0 154 28.5
t128 72.5l37 -58q-133 -133 -340 -133z" />
    <glyph glyph-name="d" unicode="d" horiz-adv-x="1206" 
d="M569 -37q-139 0 -251.5 70.5t-174 189.5t-61.5 262q0 145 61.5 267t176.5 195t260 73q73 0 149 -30.5t121 -84.5v443l-98 51v35l249 10v-1331l103 -56v-34l-254 -23v80q-47 -51 -120 -84t-161 -33zM594 41q73 0 147.5 42.5t108.5 102.5v621q-44 64 -115 101.5t-145 37.5
q-158 0 -243 -126.5t-85 -327.5q0 -195 90 -323t242 -128z" />
    <glyph glyph-name="e" unicode="e" horiz-adv-x="1083" 
d="M596 -37q-108 0 -201.5 38t-163 107.5t-109.5 174t-40 231.5q0 107 39.5 201.5t106 161t157 105t190.5 38.5q147 0 247 -65.5t142.5 -173t36.5 -246.5l-745 -3q0 -226 104 -352.5t275 -126.5q84 0 168 38.5t137 92.5l49 -51q-77 -81 -167.5 -125.5t-225.5 -44.5zM264 612
h570q-5 153 -71 245.5t-200 92.5q-116 0 -200.5 -96.5t-98.5 -241.5z" />
    <glyph glyph-name="f" unicode="f" horiz-adv-x="684" 
d="M104 0v37l101 49v805h-113v65l113 27v23q0 200 77.5 332t213.5 132q77 0 147 -32l-2 -277h-37l-72 205q-32 18 -73 18q-53 0 -86 -40.5t-29 -110.5l14 -250h209v-92h-209l2 -799l134 -59v-33h-390z" />
    <glyph glyph-name="g" unicode="g" horiz-adv-x="1187" 
d="M1085 1020v-119h-211q93 -96 93 -242q0 -112 -55.5 -195t-144.5 -124t-196 -41q-135 0 -239 66q-52 -24 -87.5 -65.5t-35.5 -90.5q0 -60 52.5 -83.5t168.5 -23.5h313q158 0 241 -54t83 -185q0 -104 -68.5 -184.5t-178.5 -122t-240 -41.5q-178 0 -277.5 63t-99.5 184
q0 65 30 127l156 33l4 -14q-43 -77 -43 -146q0 -79 63 -132.5t187 -53.5q81 0 158 30.5t129.5 92t52.5 137.5q0 56 -43.5 86.5t-126.5 30.5h-354q-161 0 -237.5 59t-76.5 164q0 78 47.5 137.5t122.5 98.5q-96 99 -96 247q0 112 55 195.5t144 124.5t196 41q117 0 211 -49
l287 49h16zM571 360q112 0 172 84t60 215t-60 215t-172 84t-171.5 -84t-59.5 -215t59.5 -215t171.5 -84z" />
    <glyph glyph-name="h" unicode="h" horiz-adv-x="1169" 
d="M92 0v37l101 49v1262l-99 51v35l250 10v-572q43 69 121 108.5t172 39.5q159 0 250.5 -90.5t91.5 -237.5v-606l98 -53v-33h-354v37l100 49v600q0 117 -60.5 184.5t-166.5 67.5q-86 0 -155 -56.5t-97 -144.5v-651l98 -53v-33h-350z" />
    <glyph glyph-name="i" unicode="i" horiz-adv-x="544" 
d="M272 1231q-44 0 -76 32t-32 76t32 76.5t76 32.5q43 0 75 -32.5t32 -76.5t-32 -76t-75 -32zM102 0v37l101 49v811l-97 51v35l248 8v-905l99 -53v-33h-351z" />
    <glyph glyph-name="j" unicode="j" horiz-adv-x="583" 
d="M313 1231q-44 0 -76 32t-32 76t32 76.5t76 32.5q43 0 75 -32.5t32 -76.5t-32 -76t-75 -32zM139 -485q-22 0 -41.5 2.5t-35 7.5t-25.5 9t-22 10t-15 7l2 287h37l88 -215q25 -14 51 -14q40 0 66.5 34t23.5 93l-14 266l-2 893l-115 53v35l271 8v-1016q0 -98 -16 -180
t-48 -145.5t-84 -99t-121 -35.5z" />
    <glyph glyph-name="k" unicode="k" horiz-adv-x="1079" 
d="M102 0v37l101 49v1262l-94 51v35l245 10v-1358l103 -53v-33h-355zM819 0l-432 555l367 342l-156 53v33h406v-37l-119 -49l-336 -309l407 -502l93 -53v-33h-230z" />
    <glyph glyph-name="l" unicode="l" horiz-adv-x="534" 
d="M92 0v37l101 49v1262l-95 51v35l246 10v-1358l98 -53v-33h-350z" />
    <glyph glyph-name="m" unicode="m" horiz-adv-x="1765" 
d="M102 0v37l101 49v811l-97 51v35l242 8l6 -119q92 148 279 148q115 0 194 -48.5t113 -135.5q39 80 113 132t188 52q158 0 246 -90t88 -238v-606l98 -53v-33h-350v37l100 49v600q0 118 -59 185t-164 67q-84 0 -144.5 -57t-88.5 -148v-647l98 -53v-33h-350v37l100 49v600
q0 118 -59 185t-164 67q-49 0 -90 -17t-66.5 -40.5t-44.5 -52t-27 -48t-10 -32.5v-662l99 -53v-33h-351z" />
    <glyph glyph-name="n" unicode="n" horiz-adv-x="1187" 
d="M102 0v37l101 49v811l-97 51v35l242 8l6 -127q40 70 120.5 113t176.5 43q159 0 252.5 -90.5t93.5 -237.5v-606l99 -53v-33h-351v37l101 49v600q0 116 -64.5 184t-171.5 68q-90 0 -158.5 -58.5t-97.5 -150.5v-643l99 -53v-33h-351z" />
    <glyph glyph-name="o" unicode="o" horiz-adv-x="1161" 
d="M584 -37q-141 0 -257.5 73.5t-181 196.5t-63.5 267q0 219 145.5 369.5t356.5 150.5q138 0 252 -70t178.5 -189.5t64.5 -260.5q0 -149 -66 -272.5t-179.5 -194t-249.5 -70.5zM584 35q83 0 145.5 38t99 104.5t54.5 147.5t18 175q0 124 -32 222.5t-105.5 162t-179.5 63.5
q-86 0 -150 -35.5t-100.5 -98.5t-54 -141t-17.5 -173q0 -97 17 -178t53.5 -147t100.5 -103t151 -37z" />
    <glyph glyph-name="p" unicode="p" horiz-adv-x="1189" 
d="M102 -451v37l101 49v1262l-97 51v35l240 8l8 -86q118 115 291 115q201 0 332 -148.5t131 -363.5q0 -152 -63 -276.5t-177 -196.5t-258 -72q-140 0 -258 80v-408l121 -53v-33h-371zM610 41q147 0 232.5 128.5t85.5 326.5q0 119 -33 218.5t-107 165.5t-178 66
q-77 0 -144.5 -37t-111.5 -92v-672q107 -104 256 -104z" />
    <glyph glyph-name="q" unicode="q" horiz-adv-x="1183" 
d="M827 -451v496q-118 -82 -274 -82q-208 0 -339.5 139.5t-131.5 395.5q0 223 134.5 372.5t336.5 149.5q155 0 293 -107l104 93h31v-1346l111 -55v-33zM588 41q138 0 239 88v698q-55 61 -108.5 91t-130.5 30q-149 0 -236.5 -128.5t-87.5 -321.5q0 -213 86.5 -335t237.5 -122
z" />
    <glyph glyph-name="r" unicode="r" horiz-adv-x="819" 
d="M102 0v37l101 49v809l-94 53v35l243 8v-235q38 115 118 189.5t187 74.5q71 0 111 -31l-43 -168q-69 53 -141 53q-155 0 -232 -253v-527l125 -61v-33h-375z" />
    <glyph glyph-name="s" unicode="s" horiz-adv-x="940" 
d="M422 -37q-150 0 -320 80l4 283h35l88 -213q82 -82 205 -82q110 0 177 52.5t67 129.5q0 85 -53.5 131t-200.5 94q-295 98 -295 295q0 135 102.5 211t270.5 76q141 0 282 -49v-283h-36l-91 219q-86 47 -176 47q-82 0 -140 -42t-58 -124q0 -72 63 -122t205 -93
q145 -44 214.5 -108.5t72.5 -179.5q0 -147 -109.5 -234.5t-306.5 -87.5z" />
    <glyph glyph-name="t" unicode="t" horiz-adv-x="681" 
d="M424 -37q-209 0 -209 236v692h-133v65l141 27v268l142 29v-297h196v-92h-194v-711q0 -52 26 -85.5t68 -33.5q54 0 102 31l37 -63q-74 -66 -176 -66z" />
    <glyph glyph-name="u" unicode="u" horiz-adv-x="1200" 
d="M557 -37q-168 0 -264 90.5t-96 237.5v604l-95 51v37l246 8v-694q0 -117 67 -184.5t183 -67.5q152 0 262 143v707l-94 51v37l246 8v-915l96 -35v-35l-238 -8v108q-122 -143 -313 -143z" />
    <glyph glyph-name="v" unicode="v" horiz-adv-x="1044" 
d="M465 -10l-334 907l-100 49v37h383v-33l-103 -53l234 -698l280 698l-118 53v33h307v-37l-99 -49l-372 -907h-78z" />
    <glyph glyph-name="w" unicode="w" horiz-adv-x="1568" 
d="M453 -6l-322 903l-100 49v37h364v-33l-102 -53l229 -645l266 731h62v2l260 -741l240 653l-119 53v33h307v-37l-98 -49l-332 -903h-72l-254 719l-262 -719h-67z" />
    <glyph glyph-name="x" unicode="x" horiz-adv-x="1064" 
d="M952 88l88 -51v-37h-422v33l142 55l-262 348l-244 -350l139 -53v-33h-368v37l118 49l301 422l-290 389l-95 49v37h385v-33l-102 -53l238 -315l219 315l-133 53v33h346v-37l-111 -49l-272 -381z" />
    <glyph glyph-name="y" unicode="y" horiz-adv-x="1130" 
d="M166 -451v37l160 60l182 389l-377 862l-100 49v37h385v-33l-103 -53l285 -676l305 676l-119 53v33h316v-37l-99 -49l-571 -1251l143 -64v-33h-407z" />
    <glyph glyph-name="z" unicode="z" horiz-adv-x="1013" 
d="M82 0v76l623 831h-418l-127 -178h-33v254h741v-98l-612 -809h469l109 178h36v-254h-788z" />
    <glyph glyph-name="braceleft" unicode="{" horiz-adv-x="858" 
d="M694 -395l-127 26q-136 29 -200 95t-64 196v440q0 95 -51.5 143t-128.5 48v41q77 0 128.5 47.5t51.5 142.5v441q0 130 64 196t200 95l127 26v-45l-67 -24q-83 -31 -126.5 -98.5t-43.5 -184.5v-387q0 -97 -39.5 -152.5t-122.5 -77.5q83 -22 122.5 -77t39.5 -152v-387
q0 -117 43.5 -184.5t126.5 -98.5l67 -24v-45z" />
    <glyph glyph-name="bar" unicode="|" horiz-adv-x="468" 
d="M174 -512v2044h121v-2044h-121z" />
    <glyph glyph-name="braceright" unicode="}" horiz-adv-x="858" 
d="M164 -395v45l67 24q83 31 126.5 98.5t43.5 184.5v387q0 97 39.5 152t122.5 77q-83 22 -122.5 77.5t-39.5 152.5v387q0 117 -43.5 184.5t-126.5 98.5l-67 24v45l127 -26q136 -29 200 -95t64 -196v-441q0 -95 51.5 -142.5t128.5 -47.5v-41q-77 0 -128.5 -48t-51.5 -143
v-440q0 -130 -64 -196t-200 -95z" />
    <glyph glyph-name="asciitilde" unicode="~" horiz-adv-x="1142" 
d="M786 479q-69 0 -184 56l-76 36q-106 52 -170 52q-63 0 -105 -35.5t-81 -98.5l-68 93q12 22 29.5 44.5t48 51.5t77 47t99.5 18q38 0 82 -12t72.5 -24t75.5 -35l67 -33q28 -14 43.5 -21t39.5 -12.5t50 -5.5q63 0 106 35.5t81 97.5l67 -92q-12 -22 -29.5 -44.5t-48 -51.5
t-77 -47.5t-99.5 -18.5z" />
    <glyph glyph-name="exclamdown" unicode="&#xa1;" horiz-adv-x="589" 
d="M295 799q-46 0 -78.5 32t-32.5 78t32.5 78.5t78.5 32.5t78.5 -32.5t32.5 -78.5t-32.5 -78t-78.5 -32zM203 -451l65 1067h51l64 -1067h-180z" />
    <glyph glyph-name="cent" unicode="&#xa2;" horiz-adv-x="1073" 
d="M621 53q77 0 154 28.5t128 72.5l37 -58q-133 -133 -340 -133q-33 0 -49 2l-31 -235h-71l32 245q-179 36 -289 171t-110 339q0 231 145.5 383t372.5 152h18l25 180h72l-25 -184q38 -3 78 -9t64.5 -11t60 -13t47.5 -10l-2 -322h-37l-88 228q-54 48 -131 67l-119 -889
q36 -4 58 -4zM264 504q0 -153 60.5 -268.5t169.5 -159.5l116 880h-14q-65 0 -120.5 -27.5t-94 -73t-65.5 -104.5t-39.5 -122t-12.5 -125z" />
    <glyph glyph-name="sterling" unicode="&#xa3;" horiz-adv-x="1263" 
d="M1083 309h37v-309h-915v37q105 70 159 176t54 217q0 71 -17.5 137.5t-50.5 153.5h-207v92h174q-43 124 -43 225q0 108 39.5 193t107 136t151 77t178.5 26q152 0 346 -61l-6 -328h-37l-111 236q-40 33 -96.5 51t-110.5 18q-129 0 -209 -85.5t-80 -225.5q0 -114 50 -262
h444v-92h-414q43 -135 43 -229q0 -182 -127 -338h559z" />
    <glyph glyph-name="currency" unicode="&#xa4;" horiz-adv-x="1155" 
d="M172 150l-80 79l98 103q-98 115 -98 307t98 307l-98 103l80 79l100 -100q120 100 306 100q185 0 305 -100l100 100l80 -79l-98 -103q98 -115 98 -307t-98 -307l98 -103l-80 -79l-100 100q-120 -100 -305 -100q-186 0 -306 100zM578 260q111 1 197 52.5t131.5 137
t45.5 189.5t-45.5 189.5t-131.5 137t-197 52.5q-111 -1 -197 -52.5t-132 -137t-46 -189.5t46 -189.5t132 -137t197 -52.5z" />
    <glyph glyph-name="yen" unicode="&#xa5;" horiz-adv-x="1359" 
d="M950 1434h348v-37l-84 -49l-409 -680h319v-93h-356v-114h356v-92h-356v-283l117 -53v-33h-400v37l111 49v283h-360v92h360v114h-360v93h321l-407 680l-89 49v37h402v-33l-121 -53l391 -648l367 648l-150 53v33z" />
    <glyph glyph-name="brokenbar" unicode="&#xa6;" horiz-adv-x="468" 
d="M174 631v901h121v-901h-121zM174 -512v901h121v-901h-121z" />
    <glyph glyph-name="section" unicode="&#xa7;" horiz-adv-x="1157" 
d="M1034 473q0 -92 -57.5 -172.5t-149.5 -136.5q99 -99 99 -246q0 -157 -122 -251.5t-304 -94.5q-155 0 -318 61l6 316h37l103 -242q37 -26 93 -42.5t107 -16.5q124 0 189 62t65 161q0 81 -50 137.5t-138 102.5l-242 122q-143 72 -200 150t-60 186q0 92 57.5 173t149.5 137
q-98 98 -98 245q0 157 122 251.5t304 94.5q154 0 317 -61l-6 -315h-37l-102 241q-37 26 -93.5 43t-107.5 17q-124 0 -189 -62.5t-65 -161.5q0 -81 50 -137t138 -102l242 -123q143 -72 200 -150t60 -186zM778 207q123 78 123 207q0 127 -168 213l-295 153q-35 18 -90 56
q-123 -78 -123 -207q0 -127 168 -213l295 -154q41 -21 90 -55z" />
    <glyph glyph-name="dieresis" unicode="&#xa8;" horiz-adv-x="741" 
d="M207 1227q-43 0 -74 30.5t-31 73.5t31 74t74 31q41 0 71.5 -31t30.5 -74t-30.5 -73.5t-71.5 -30.5zM537 1227q-43 0 -74 30.5t-31 73.5t31 74t74 31q41 0 71.5 -31t30.5 -74t-30.5 -73.5t-71.5 -30.5z" />
    <glyph glyph-name="copyright" unicode="&#xa9;" horiz-adv-x="1843" 
d="M922 -37q-155 0 -294.5 56.5t-241.5 155t-162 239.5t-60 303t60 303t162 239t241.5 154.5t294.5 56.5q208 0 380.5 -95.5t274.5 -269t102 -388.5q0 -162 -60 -303t-161.5 -239.5t-241 -155t-294.5 -56.5zM922 27q146 0 273.5 52t219 142.5t144.5 219t53 276.5t-53 276.5
t-144.5 219t-219 142.5t-273.5 52q-194 0 -352 -88t-248.5 -246.5t-90.5 -355.5t90.5 -355.5t248.5 -246.5t352 -88zM942 248q-127 0 -233 55.5t-171 164t-65 249.5t65 249.5t171 164t233 55.5q33 0 64.5 -2.5t64.5 -8.5t49 -9.5t52 -12.5l40 -10l-4 -219h-30l-70 145
q-77 47 -164 47q-142 0 -217.5 -107.5t-75.5 -291.5t75.5 -292t217.5 -108q98 0 172 52l70 141h31l4 -215q-178 -47 -279 -47z" />
    <glyph glyph-name="ordfeminine" unicode="&#xaa;" horiz-adv-x="944" 
d="M397 612q-98 0 -155.5 50t-57.5 137q0 118 104 179.5t287 61.5q2 84 -40.5 135.5t-112.5 51.5q-104 0 -162 -101l-49 33q72 133 223 133q122 0 192 -76t70 -204v-324l64 -26v-27h-162l-8 88q-23 -46 -70 -78.5t-123 -32.5zM426 676q69 0 109 48t40 122v141
q-126 -6 -195 -53t-69 -133q0 -57 32 -91t83 -34z" />
    <glyph glyph-name="guillemotleft" unicode="&#xab;" horiz-adv-x="858" 
d="M375 203l-273 375l277 360h70l-179 -367l179 -368h-74zM682 203l-272 375l276 360h70l-178 -367l178 -368h-74z" />
    <glyph glyph-name="logicalnot" unicode="&#xac;" horiz-adv-x="1069" 
d="M952 82v461h-942v106h1049v-567h-107z" />
    <glyph glyph-name="registered" unicode="&#xae;" horiz-adv-x="974" 
d="M487 705q-161 0 -273 106t-112 276t112 276.5t273 106.5t273 -106.5t112 -276.5t-112 -276t-273 -106zM487 743q144 0 244 96t100 248t-100 248.5t-244 96.5t-244 -96.5t-100 -248.5t100 -248t244 -96zM348 864v449h152q69 0 109 -36.5t40 -88.5t-33 -82t-86 -35
q40 -14 74 -78l68 -129h-80l-78 150q-24 49 -78 49h-18v-199h-70zM418 1112h61q44 0 70 19.5t26 56.5q0 35 -25.5 55.5t-70.5 20.5h-61v-152z" />
    <glyph glyph-name="macron" unicode="&#xaf;" horiz-adv-x="724" 
d="M102 1280v94h521v-94h-521z" />
    <glyph glyph-name="degree" unicode="&#xb0;" horiz-adv-x="724" 
d="M362 868q-127 0 -214 86.5t-87 214.5t87.5 214.5t213.5 86.5q127 0 214.5 -86.5t87.5 -214.5t-88 -214.5t-214 -86.5zM362 952q95 0 152 62t57 155q0 92 -58 156t-153 64q-92 0 -150 -65.5t-58 -156.5q0 -92 57.5 -153.5t152.5 -61.5z" />
    <glyph glyph-name="plusminus" unicode="&#xb1;" horiz-adv-x="1058" 
d="M477 303v465h-467v106h467v463h107v-463h465v-106h-465v-465h-107zM10 92v107h1039v-107h-1039z" />
    <glyph glyph-name="uni00B2" unicode="&#xb2;" horiz-adv-x="794" 
d="M164 717v90l248 276q90 104 90 203q0 63 -37.5 97t-99.5 34q-51 0 -91 -28l-53 -138h-37l-2 189q93 30 183 30q119 0 192.5 -54.5t73.5 -143.5q0 -123 -121 -228l-258 -229h293l37 90h36v-188h-454z" />
    <glyph glyph-name="uni00B3" unicode="&#xb3;" horiz-adv-x="763" 
d="M313 698q-93 0 -190 45l2 175h37l51 -138q48 -30 102 -30q74 0 113 46.5t37 123.5q0 92 -59 129.5t-168 37.5v60h24q79 0 133 41t54 112q0 53 -36 85t-96 32q-49 0 -96 -28l-53 -138h-37l-4 189q92 30 205 30q99 0 170 -43t71 -120q0 -68 -45 -117.5t-116 -61.5
q83 -12 135.5 -69t52.5 -135q0 -93 -85 -159.5t-202 -66.5z" />
    <glyph glyph-name="acute" unicode="&#xb4;" horiz-adv-x="653" 
d="M121 1165l-19 37l365 268h29l55 -127z" />
    <glyph glyph-name="paragraph" unicode="&#xb6;" horiz-adv-x="1288" 
d="M442 -328v43l168 54v876q-196 0 -311 105t-115 286q0 199 115.5 298.5t333.5 99.5h471v-37l-111 -49v-1590l111 -49v-37h-230v1682h-145v-1682h-287zM610 725v629q-59 0 -108 -17.5t-89 -53.5t-62.5 -99.5t-22.5 -147.5q0 -157 79.5 -234t202.5 -77z" />
    <glyph glyph-name="periodcentered" unicode="&#xb7;" horiz-adv-x="385" 
d="M193 483q-46 0 -78.5 32.5t-32.5 78.5t32.5 78.5t78.5 32.5t78 -32.5t32 -78.5t-32 -78.5t-78 -32.5z" />
    <glyph glyph-name="cedilla" unicode="&#xb8;" horiz-adv-x="595" 
d="M289 -436q-61 0 -109.5 25t-77.5 67l39 31q54 -72 140 -72q62 0 92 33.5t30 79.5q0 51 -34.5 84.5t-94.5 33.5q-37 0 -73 -20l-39 43l76 145h98l-72 -118q18 6 47 6q73 0 128 -47.5t55 -120.5q0 -76 -57 -123t-148 -47z" />
    <glyph glyph-name="uni00B9" unicode="&#xb9;" horiz-adv-x="661" 
d="M201 717v39l96 26v568h-113v41l224 61h10v-670l80 -28v-37h-297z" />
    <glyph glyph-name="ordmasculine" unicode="&#xba;" horiz-adv-x="972" 
d="M487 612q-139 0 -231 99t-92 241t92 241t231 99t231.5 -99.5t92.5 -240.5t-92.5 -240.5t-231.5 -99.5zM487 670q94 0 144.5 79t50.5 203q0 125 -50.5 204t-144.5 79t-144 -79t-50 -204t50 -203.5t144 -78.5z" />
    <glyph glyph-name="guillemotright" unicode="&#xbb;" horiz-adv-x="858" 
d="M102 203l179 368l-179 367h70l277 -360l-273 -375h-74zM410 203l178 368l-178 367h69l277 -360l-273 -375h-73z" />
    <glyph glyph-name="onequarter" unicode="&#xbc;" horiz-adv-x="1472" 
d="M201 717v39l96 26v568h-113v41l224 61h10v-670l80 -28v-37h-297zM393 2l680 1434h74l-682 -1434h-72zM1092 0v39l86 27v145h-306v68l322 456h104v-456h93v-68h-93v-145l70 -29v-37h-276zM946 279h232v329z" />
    <glyph glyph-name="onehalf" unicode="&#xbd;" horiz-adv-x="1597" 
d="M201 717v39l96 26v568h-113v41l224 61h10v-670l80 -28v-37h-297zM393 2l680 1434h74l-682 -1434h-72zM967 0v90l247 277q91 105 91 202q0 63 -38 97t-100 34q-50 0 -90 -28l-53 -137h-37l-2 188q96 31 182 31q119 0 193 -55t74 -144q0 -122 -121 -227l-258 -230h293
l36 90h37v-188h-454z" />
    <glyph glyph-name="threequarters" unicode="&#xbe;" horiz-adv-x="1452" 
d="M313 698q-93 0 -190 45l2 175h37l51 -138q48 -30 102 -30q74 0 113 46.5t37 123.5q0 92 -59 129.5t-168 37.5v60h24q79 0 133 41t54 112q0 53 -36 85t-96 32q-49 0 -96 -28l-53 -138h-37l-4 189q92 30 205 30q99 0 170 -43t71 -120q0 -68 -45 -117.5t-116 -61.5
q83 -12 135.5 -69t52.5 -135q0 -93 -85 -159.5t-202 -66.5zM414 2l680 1434h73l-682 -1434h-71zM1071 0v39l86 27v145h-305v68l322 456h104v-456h92v-68h-92v-145l70 -29v-37h-277zM926 279h231v329z" />
    <glyph glyph-name="questiondown" unicode="&#xbf;" horiz-adv-x="919" 
d="M549 799q-46 0 -78.5 32t-32.5 78t32.5 78.5t78.5 32.5t78 -32.5t32 -78.5t-32 -78t-78 -32zM500 -487q-163 0 -270 86.5t-107 228.5q0 77 21.5 138t56 103t76 80.5t83.5 80.5t76.5 91t56 124.5t21.5 170.5h74q0 -127 -30 -226.5t-72 -162t-84.5 -117.5t-72.5 -123
t-30 -149q0 -108 64 -182t165 -74q72 0 129 47l97 213h37l6 -268q-149 -61 -297 -61z" />
    <glyph glyph-name="Agrave" unicode="&#xc0;" horiz-adv-x="1449" 
d="M903 1616l-18 -37l-430 178l55 127h29zM1292 86l97 -53v-33h-418v33l131 53l-146 360h-536l-129 -360l143 -53v-33h-373v33l121 53l445 1178l-70 170h174zM453 535h467l-248 612z" />
    <glyph glyph-name="Aacute" unicode="&#xc1;" horiz-adv-x="1449" 
d="M909 1757l-430 -178l-18 37l364 268h29zM1292 86l97 -53v-33h-418v33l131 53l-146 360h-536l-129 -360l143 -53v-33h-373v33l121 53l445 1178l-70 170h174zM453 535h467l-248 612z" />
    <glyph glyph-name="Acircumflex" unicode="&#xc2;" horiz-adv-x="1449" 
d="M971 1585l-289 170l-289 -170v72l273 227h32l273 -227v-72zM1292 86l97 -53v-33h-418v33l131 53l-146 360h-536l-129 -360l143 -53v-33h-373v33l121 53l445 1178l-70 170h174zM453 535h467l-248 612z" />
    <glyph glyph-name="Atilde" unicode="&#xc3;" horiz-adv-x="1449" 
d="M567 1743q-41 0 -72 -19t-63 -53l-26 35q89 141 190 141q47 0 118 -26.5t107 -26.5q39 0 64.5 11.5t58.5 41.5l31 -24q-43 -72 -82 -104.5t-100 -32.5q-51 0 -119 28.5t-107 28.5zM1292 86l97 -53v-33h-418v33l131 53l-146 360h-536l-129 -360l143 -53v-33h-373v33
l121 53l445 1178l-70 170h174zM453 535h467l-248 612z" />
    <glyph glyph-name="Adieresis" unicode="&#xc4;" horiz-adv-x="1449" 
d="M520 1640q-43 0 -73.5 31t-30.5 74t30.5 73.5t73.5 30.5q42 0 72.5 -30.5t30.5 -73.5t-31 -74t-72 -31zM850 1640q-43 0 -74 31t-31 74t31 73.5t74 30.5q41 0 71.5 -30.5t30.5 -73.5t-30.5 -74t-71.5 -31zM1292 86l97 -53v-33h-418v33l131 53l-146 360h-536l-129 -360
l143 -53v-33h-373v33l121 53l445 1178l-70 170h174zM453 535h467l-248 612z" />
    <glyph glyph-name="Aring" unicode="&#xc5;" horiz-adv-x="1449" 
d="M686 1575q-77 0 -126.5 49t-49.5 125q0 75 50.5 124.5t125.5 49.5q77 0 126.5 -49t49.5 -125q0 -75 -50.5 -124.5t-125.5 -49.5zM686 1862q-47 0 -77.5 -32t-30.5 -81t30.5 -81t77.5 -32t78 32t31 81t-31 81t-78 32zM1292 86l97 -53v-33h-418v33l131 53l-146 360h-536
l-129 -360l143 -53v-33h-373v33l121 53l445 1178l-70 170h174zM453 535h467l-248 612z" />
    <glyph glyph-name="AE" unicode="&#xc6;" horiz-adv-x="1769" 
d="M1671 348h37l-20 -348h-717v33l131 53l-158 360h-528l-125 -360l143 -53v-33h-373v33l121 53l447 1180l-72 168h1055l30 -330h-36l-136 246h-704l229 -553l439 6v-107l-400 11l258 -619h254zM444 535h469l-237 624z" />
    <glyph glyph-name="Ccedilla" unicode="&#xc7;" horiz-adv-x="1404" 
d="M834 -98q73 0 127.5 -47.5t54.5 -120.5q0 -76 -57 -123t-148 -47q-61 0 -109 25t-77 67l39 31q54 -72 139 -72q62 0 92.5 33.5t30.5 79.5q0 51 -34.5 84.5t-94.5 33.5q-38 0 -74 -20l-39 43l51 98q-278 31 -445 230t-167 520q0 172 55 315t150 238t223.5 147.5
t275.5 52.5q122 0 215 -14t207 -47l-6 -328h-37l-125 242q-112 74 -252 74q-126 0 -225.5 -52t-163 -144t-96.5 -215t-33 -269q0 -119 16.5 -218t55 -184t97.5 -143.5t147.5 -91.5t201.5 -33q57 0 135 21t130 57l125 227h36l7 -319q-241 -70 -435 -70l-41 -67q18 6 48 6z
" />
    <glyph glyph-name="Egrave" unicode="&#xc8;" horiz-adv-x="1280" 
d="M885 1579l-430 178l55 127h29l364 -268zM145 0v37l111 49l-2 1262l-111 49v37h938l31 -330h-37l-135 246h-512v-557l475 10v-107l-475 17v-625h588l125 260h37l-21 -348h-1012z" />
    <glyph glyph-name="Eacute" unicode="&#xc9;" horiz-adv-x="1280" 
d="M479 1579l-18 37l364 268h29l55 -127zM145 0v37l111 49l-2 1262l-111 49v37h938l31 -330h-37l-135 246h-512v-557l475 10v-107l-475 17v-625h588l125 260h37l-21 -348h-1012z" />
    <glyph glyph-name="Ecircumflex" unicode="&#xca;" horiz-adv-x="1280" 
d="M393 1585v72l273 227h32l273 -227v-72l-289 170zM145 0v37l111 49l-2 1262l-111 49v37h938l31 -330h-37l-135 246h-512v-557l475 10v-107l-475 17v-625h588l125 260h37l-21 -348h-1012z" />
    <glyph glyph-name="Edieresis" unicode="&#xcb;" horiz-adv-x="1280" 
d="M520 1640q-43 0 -73.5 31t-30.5 74t30.5 73.5t73.5 30.5q42 0 72.5 -30.5t30.5 -73.5t-31 -74t-72 -31zM850 1640q-43 0 -74 31t-31 74t31 73.5t74 30.5q41 0 71.5 -30.5t30.5 -73.5t-30.5 -74t-71.5 -31zM145 0v37l111 49l-2 1262l-111 49v37h938l31 -330h-37l-135 246
h-512v-557l475 10v-107l-475 17v-625h588l125 260h37l-21 -348h-1012z" />
    <glyph glyph-name="Igrave" unicode="&#xcc;" horiz-adv-x="675" 
d="M539 1579l-430 178l55 127h29l364 -268zM143 0v37l111 49v1262l-111 49v37h389v-33l-106 -53v-1262l106 -53v-33h-389z" />
    <glyph glyph-name="Iacute" unicode="&#xcd;" horiz-adv-x="675" 
d="M133 1579l-18 37l364 268h29l55 -127zM143 0v37l111 49v1262l-111 49v37h389v-33l-106 -53v-1262l106 -53v-33h-389z" />
    <glyph glyph-name="Icircumflex" unicode="&#xce;" horiz-adv-x="675" 
d="M47 1585v72l272 227h33l273 -227v-72l-289 170zM143 0v37l111 49v1262l-111 49v37h389v-33l-106 -53v-1262l106 -53v-33h-389z" />
    <glyph glyph-name="Idieresis" unicode="&#xcf;" horiz-adv-x="675" 
d="M174 1640q-43 0 -73.5 31t-30.5 74t30.5 73.5t73.5 30.5q41 0 71.5 -30.5t30.5 -73.5t-30.5 -74t-71.5 -31zM504 1640q-43 0 -74 31t-31 74t31 73.5t74 30.5q41 0 71.5 -30.5t30.5 -73.5t-30.5 -74t-71.5 -31zM143 0v37l111 49v1262l-111 49v37h389v-33l-106 -53v-1262
l106 -53v-33h-389z" />
    <glyph glyph-name="Eth" unicode="&#xd0;" horiz-adv-x="1601" 
d="M772 1434q142 0 259.5 -36.5t199.5 -101t138.5 -154.5t83 -196t26.5 -227q0 -118 -28 -224.5t-85.5 -197.5t-140.5 -157t-199 -103t-254 -37h-536v37l110 49v608h-203v88h203v564l-110 49v39h536zM752 88q108 0 197.5 34.5t151 94t104.5 140.5t63 172t20 190
q0 631 -536 631h-234v-568h342v-88h-342v-606h234z" />
    <glyph glyph-name="Ntilde" unicode="&#xd1;" horiz-adv-x="1468" 
d="M526 1671l-26 35q89 141 190 141q47 0 118 -26.5t107 -26.5q39 0 64.5 11.5t58.5 41.5l31 -24q-43 -72 -82 -104.5t-100 -32.5q-51 0 -118.5 28.5t-106.5 28.5q-68 0 -136 -72zM1159 -18l-831 1323v-1219l121 -53v-33h-326v37l110 49v1262l-104 49v37h315l697 -1100v1014
l-121 49v37h326v-33l-111 -53v-1366h-76z" />
    <glyph glyph-name="Ograve" unicode="&#xd2;" horiz-adv-x="1548" 
d="M973 1579l-430 178l55 127h29l364 -268zM774 -37q-196 0 -345.5 98.5t-228.5 269.5t-77 386q-2 214 77 385t228.5 269.5t345.5 98.5t345.5 -98.5t228.5 -269.5t77 -385q2 -215 -77 -386t-228.5 -269.5t-345.5 -98.5zM774 41q101 0 180.5 34.5t132.5 94.5t88 146.5
t50.5 185.5t15.5 215t-15.5 214.5t-50.5 185t-88 147t-132.5 95t-180.5 34.5t-180.5 -34.5t-132.5 -95t-88 -147t-50.5 -185t-15.5 -214.5t15.5 -215t50.5 -185.5t88 -146.5t132.5 -94.5t180.5 -34.5z" />
    <glyph glyph-name="Oacute" unicode="&#xd3;" horiz-adv-x="1548" 
d="M567 1579l-18 37l364 268h29l55 -127zM774 -37q-196 0 -345.5 98.5t-228.5 269.5t-77 386q-2 214 77 385t228.5 269.5t345.5 98.5t345.5 -98.5t228.5 -269.5t77 -385q2 -215 -77 -386t-228.5 -269.5t-345.5 -98.5zM774 41q101 0 180.5 34.5t132.5 94.5t88 146.5
t50.5 185.5t15.5 215t-15.5 214.5t-50.5 185t-88 147t-132.5 95t-180.5 34.5t-180.5 -34.5t-132.5 -95t-88 -147t-50.5 -185t-15.5 -214.5t15.5 -215t50.5 -185.5t88 -146.5t132.5 -94.5t180.5 -34.5z" />
    <glyph glyph-name="Ocircumflex" unicode="&#xd4;" horiz-adv-x="1548" 
d="M481 1585v72l273 227h32l273 -227v-72l-289 170zM774 -37q-196 0 -345.5 98.5t-228.5 269.5t-77 386q-2 214 77 385t228.5 269.5t345.5 98.5t345.5 -98.5t228.5 -269.5t77 -385q2 -215 -77 -386t-228.5 -269.5t-345.5 -98.5zM774 41q101 0 180.5 34.5t132.5 94.5
t88 146.5t50.5 185.5t15.5 215t-15.5 214.5t-50.5 185t-88 147t-132.5 95t-180.5 34.5t-180.5 -34.5t-132.5 -95t-88 -147t-50.5 -185t-15.5 -214.5t15.5 -215t50.5 -185.5t88 -146.5t132.5 -94.5t180.5 -34.5z" />
    <glyph glyph-name="Otilde" unicode="&#xd5;" horiz-adv-x="1548" 
d="M520 1671l-26 35q89 141 190 141q47 0 118 -26.5t107 -26.5q39 0 64.5 11.5t58.5 41.5l31 -24q-43 -72 -82 -104.5t-100 -32.5q-51 0 -119 28.5t-107 28.5q-41 0 -72 -19t-63 -53zM774 -37q-196 0 -345.5 98.5t-228.5 269.5t-77 386q-2 214 77 385t228.5 269.5
t345.5 98.5t345.5 -98.5t228.5 -269.5t77 -385q2 -215 -77 -386t-228.5 -269.5t-345.5 -98.5zM774 41q101 0 180.5 34.5t132.5 94.5t88 146.5t50.5 185.5t15.5 215t-15.5 214.5t-50.5 185t-88 147t-132.5 95t-180.5 34.5t-180.5 -34.5t-132.5 -95t-88 -147t-50.5 -185
t-15.5 -214.5t15.5 -215t50.5 -185.5t88 -146.5t132.5 -94.5t180.5 -34.5z" />
    <glyph glyph-name="Odieresis" unicode="&#xd6;" horiz-adv-x="1548" 
d="M608 1640q-43 0 -73.5 31t-30.5 74t30.5 73.5t73.5 30.5q42 0 72.5 -30.5t30.5 -73.5t-31 -74t-72 -31zM938 1640q-43 0 -73.5 31t-30.5 74t30.5 73.5t73.5 30.5q41 0 71.5 -30.5t30.5 -73.5t-30.5 -74t-71.5 -31zM774 -37q-196 0 -345.5 98.5t-228.5 269.5t-77 386
q-2 214 77 385t228.5 269.5t345.5 98.5t345.5 -98.5t228.5 -269.5t77 -385q2 -215 -77 -386t-228.5 -269.5t-345.5 -98.5zM774 41q101 0 180.5 34.5t132.5 94.5t88 146.5t50.5 185.5t15.5 215t-15.5 214.5t-50.5 185t-88 147t-132.5 95t-180.5 34.5t-180.5 -34.5t-132.5 -95
t-88 -147t-50.5 -185t-15.5 -214.5t15.5 -215t50.5 -185.5t88 -146.5t132.5 -94.5t180.5 -34.5z" />
    <glyph glyph-name="multiply" unicode="&#xd7;" horiz-adv-x="909" 
d="M86 152l-76 73l369 371l-369 367l76 75l369 -368l370 368l74 -75l-369 -367l369 -371l-74 -73l-370 368z" />
    <glyph glyph-name="Oslash" unicode="&#xd8;" horiz-adv-x="1548" 
d="M1194 1313q113 -101 172.5 -255.5t58.5 -340.5q2 -215 -77 -386t-228.5 -269.5t-345.5 -98.5t-348 100l-90 -145h-105l123 201q-113 101 -172.5 256t-58.5 342q-2 214 77 385t228.5 269.5t345.5 98.5q199 0 350 -102l90 148h105zM307 717q0 -321 113 -492l649 1055
q-113 113 -295 113q-101 0 -180.5 -34.5t-132.5 -95t-88 -147t-50.5 -185t-15.5 -214.5zM774 41q101 0 180.5 34.5t132.5 94.5t88 146.5t50.5 185.5t15.5 215q0 315 -113 489l-649 -1054q114 -111 295 -111z" />
    <glyph glyph-name="Ugrave" unicode="&#xd9;" horiz-adv-x="1495" 
d="M979 1579l-430 178l55 127h29l364 -268zM756 -37q-244 0 -383.5 126t-139.5 366v893l-110 49v37h389v-33l-106 -53v-908q0 -185 90.5 -289t267.5 -104q192 0 296.5 104t104.5 289v908l-110 49v37h317v-33l-106 -53v-893q0 -233 -138.5 -362.5t-371.5 -129.5z" />
    <glyph glyph-name="Uacute" unicode="&#xda;" horiz-adv-x="1495" 
d="M573 1579l-18 37l365 268h28l56 -127zM756 -37q-244 0 -383.5 126t-139.5 366v893l-110 49v37h389v-33l-106 -53v-908q0 -185 90.5 -289t267.5 -104q192 0 296.5 104t104.5 289v908l-110 49v37h317v-33l-106 -53v-893q0 -233 -138.5 -362.5t-371.5 -129.5z" />
    <glyph glyph-name="Ucircumflex" unicode="&#xdb;" horiz-adv-x="1495" 
d="M487 1585v72l273 227h33l272 -227v-72l-289 170zM756 -37q-244 0 -383.5 126t-139.5 366v893l-110 49v37h389v-33l-106 -53v-908q0 -185 90.5 -289t267.5 -104q192 0 296.5 104t104.5 289v908l-110 49v37h317v-33l-106 -53v-893q0 -233 -138.5 -362.5t-371.5 -129.5z" />
    <glyph glyph-name="Udieresis" unicode="&#xdc;" horiz-adv-x="1495" 
d="M614 1640q-43 0 -73.5 31t-30.5 74t30.5 73.5t73.5 30.5q42 0 72.5 -30.5t30.5 -73.5t-31 -74t-72 -31zM944 1640q-43 0 -73.5 31t-30.5 74t30.5 73.5t73.5 30.5q42 0 72.5 -30.5t30.5 -73.5t-31 -74t-72 -31zM756 -37q-244 0 -383.5 126t-139.5 366v893l-110 49v37h389
v-33l-106 -53v-908q0 -185 90.5 -289t267.5 -104q192 0 296.5 104t104.5 289v908l-110 49v37h317v-33l-106 -53v-893q0 -233 -138.5 -362.5t-371.5 -129.5z" />
    <glyph glyph-name="Yacute" unicode="&#xdd;" horiz-adv-x="1359" 
d="M512 1579l-18 37l364 268h29l55 -127zM485 0v37l111 49v516l-446 746l-89 49v37h402v-33l-121 -53l391 -648l367 648l-150 53v33h348v-37l-84 -49l-446 -740v-522l117 -53v-33h-400z" />
    <glyph glyph-name="Thorn" unicode="&#xde;" horiz-adv-x="1255" 
d="M143 0v37l111 49v1262l-111 49v37h389v-33l-106 -53v-201h270q204 0 330.5 -104.5t126.5 -282.5q0 -175 -129 -291.5t-328 -116.5h-270v-266l106 -53v-33h-389zM426 436h215q158 0 244 87.5t86 236.5q0 166 -81 234.5t-249 68.5h-215v-627z" />
    <glyph glyph-name="germandbls" unicode="&#xdf;" horiz-adv-x="1366" 
d="M848 -37q-150 0 -320 80l4 283h35l88 -213q82 -82 205 -82q112 0 178 56.5t66 150.5q0 22 -4 41t-14.5 34.5t-20 27.5t-28.5 23t-31.5 18.5t-37.5 16t-37.5 13t-41 13t-39.5 11.5q-137 42 -216 117t-79 180q0 57 22.5 102.5t56 74t73 59t73 57t56 67.5t22.5 91
q0 98 -69 153.5t-179 55.5q-121 0 -186.5 -79.5t-65.5 -228.5l2 -1085h-256v37l101 49v805h-113v65l113 27v86q0 97 34.5 174t94 125.5t136 74t163.5 25.5q158 0 265.5 -83t107.5 -207q0 -48 -22 -88t-55 -66.5t-71.5 -55t-71.5 -53.5t-55 -62t-22 -81q0 -23 8 -43t19 -35.5
t31.5 -30t37 -23.5t43.5 -20t43.5 -17t45 -15t40.5 -13q141 -48 214 -113t73 -177q0 -147 -109.5 -234.5t-306.5 -87.5z" />
    <glyph glyph-name="agrave" unicode="&#xe0;" horiz-adv-x="1062" 
d="M719 1128l-430 179l55 127h29l364 -269zM424 -37q-157 0 -244.5 76.5t-87.5 212.5q0 90 54.5 163t145.5 119t204 70.5t235 24.5q0 138 -70.5 214.5t-195.5 76.5q-88 0 -156.5 -41.5t-111.5 -112.5l-68 45q114 209 354 209q187 0 293.5 -111.5t106.5 -308.5v-514l98 -53
v-33h-233l-11 141q-37 -72 -116.5 -125t-196.5 -53zM459 45q109 0 190.5 89.5t81.5 203.5v225q-110 -9 -192 -28t-148 -53.5t-100.5 -90.5t-34.5 -133q0 -98 55 -155.5t148 -57.5z" />
    <glyph glyph-name="aacute" unicode="&#xe1;" horiz-adv-x="1062" 
d="M313 1128l-18 37l364 269h29l55 -127zM424 -37q-157 0 -244.5 76.5t-87.5 212.5q0 90 54.5 163t145.5 119t204 70.5t235 24.5q0 138 -70.5 214.5t-195.5 76.5q-88 0 -156.5 -41.5t-111.5 -112.5l-68 45q114 209 354 209q187 0 293.5 -111.5t106.5 -308.5v-514l98 -53v-33
h-233l-11 141q-37 -72 -116.5 -125t-196.5 -53zM459 45q109 0 190.5 89.5t81.5 203.5v225q-110 -9 -192 -28t-148 -53.5t-100.5 -90.5t-34.5 -133q0 -98 55 -155.5t148 -57.5z" />
    <glyph glyph-name="acircumflex" unicode="&#xe2;" horiz-adv-x="1062" 
d="M227 1135v71l273 228h32l273 -228v-71l-289 170zM424 -37q-157 0 -244.5 76.5t-87.5 212.5q0 90 54.5 163t145.5 119t204 70.5t235 24.5q0 138 -70.5 214.5t-195.5 76.5q-88 0 -156.5 -41.5t-111.5 -112.5l-68 45q114 209 354 209q187 0 293.5 -111.5t106.5 -308.5v-514
l98 -53v-33h-233l-11 141q-37 -72 -116.5 -125t-196.5 -53zM459 45q109 0 190.5 89.5t81.5 203.5v225q-110 -9 -192 -28t-148 -53.5t-100.5 -90.5t-34.5 -133q0 -98 55 -155.5t148 -57.5z" />
    <glyph glyph-name="atilde" unicode="&#xe3;" horiz-adv-x="1062" 
d="M266 1221l-26 34q90 142 190 142q47 0 118 -27t107 -27q39 0 64.5 12t58.5 42l31 -25q-43 -72 -82 -104.5t-100 -32.5q-51 0 -119 28.5t-107 28.5q-68 0 -135 -71zM424 -37q-157 0 -244.5 76.5t-87.5 212.5q0 90 54.5 163t145.5 119t204 70.5t235 24.5q0 138 -70.5 214.5
t-195.5 76.5q-88 0 -156.5 -41.5t-111.5 -112.5l-68 45q114 209 354 209q187 0 293.5 -111.5t106.5 -308.5v-514l98 -53v-33h-233l-11 141q-37 -72 -116.5 -125t-196.5 -53zM459 45q109 0 190.5 89.5t81.5 203.5v225q-110 -9 -192 -28t-148 -53.5t-100.5 -90.5t-34.5 -133
q0 -98 55 -155.5t148 -57.5z" />
    <glyph glyph-name="adieresis" unicode="&#xe4;" horiz-adv-x="1062" 
d="M354 1190q-43 0 -73.5 30.5t-30.5 73.5t30.5 74t73.5 31q41 0 72 -31t31 -74q0 -42 -30.5 -73t-72.5 -31zM684 1190q-43 0 -73.5 30.5t-30.5 73.5t30.5 74t73.5 31q41 0 71.5 -31t30.5 -74t-30.5 -73.5t-71.5 -30.5zM424 -37q-157 0 -244.5 76.5t-87.5 212.5
q0 90 54.5 163t145.5 119t204 70.5t235 24.5q0 138 -70.5 214.5t-195.5 76.5q-88 0 -156.5 -41.5t-111.5 -112.5l-68 45q114 209 354 209q187 0 293.5 -111.5t106.5 -308.5v-514l98 -53v-33h-233l-11 141q-37 -72 -116.5 -125t-196.5 -53zM459 45q109 0 190.5 89.5
t81.5 203.5v225q-110 -9 -192 -28t-148 -53.5t-100.5 -90.5t-34.5 -133q0 -98 55 -155.5t148 -57.5z" />
    <glyph glyph-name="aring" unicode="&#xe5;" horiz-adv-x="1062" 
d="M520 1124q-77 0 -126.5 49t-49.5 125q0 75 50.5 125t125.5 50q77 0 126.5 -49.5t49.5 -125.5q0 -75 -50.5 -124.5t-125.5 -49.5zM520 1186q47 0 78 31.5t31 80.5t-31 81t-78 32t-77.5 -32t-30.5 -81t30.5 -80.5t77.5 -31.5zM424 -37q-157 0 -244.5 76.5t-87.5 212.5
q0 90 54.5 163t145.5 119t204 70.5t235 24.5q0 138 -70.5 214.5t-195.5 76.5q-88 0 -156.5 -41.5t-111.5 -112.5l-68 45q114 209 354 209q187 0 293.5 -111.5t106.5 -308.5v-514l98 -53v-33h-233l-11 141q-37 -72 -116.5 -125t-196.5 -53zM459 45q109 0 190.5 89.5
t81.5 203.5v225q-110 -9 -192 -28t-148 -53.5t-100.5 -90.5t-34.5 -133q0 -98 55 -155.5t148 -57.5z" />
    <glyph glyph-name="ae" unicode="&#xe6;" horiz-adv-x="1712" 
d="M424 -37q-157 0 -244.5 76.5t-87.5 212.5q0 90 54.5 163t145.5 119t204 70.5t235 24.5q1 144 -68.5 219.5t-195.5 75.5q-175 0 -264 -158l-74 45q49 97 142.5 153t220.5 56q244 0 339 -186q64 88 161 137t212 49q147 0 247 -65.5t142.5 -173t36.5 -246.5l-745 -3
q0 -226 104 -352.5t275 -126.5q84 0 168 38.5t137 92.5l49 -51q-77 -81 -167.5 -125.5t-225.5 -44.5q-153 0 -270 74.5t-175 210.5q-8 -42 -34 -88.5t-68 -92t-109 -75t-145 -29.5zM893 612h569q-5 153 -70.5 245.5t-199.5 92.5q-116 0 -200.5 -96.5t-98.5 -241.5zM459 45
q109 0 190.5 89.5t81.5 203.5v225q-110 -9 -192 -28t-148 -53.5t-100.5 -90.5t-34.5 -133q0 -98 55 -155.5t148 -57.5z" />
    <glyph glyph-name="ccedilla" unicode="&#xe7;" horiz-adv-x="1073" 
d="M940 96q-123 -123 -303 -131l-41 -69q18 6 47 6q73 0 127.5 -47.5t54.5 -120.5q0 -76 -56.5 -123t-147.5 -47q-61 0 -109.5 25t-77.5 67l39 31q54 -72 139 -72q62 0 92.5 33.5t30.5 79.5q0 51 -34.5 84.5t-94.5 33.5q-38 0 -74 -20l-38 43l51 96q-99 9 -183 49
t-146.5 105.5t-98 159.5t-35.5 206q0 231 145.5 383t372.5 152q44 0 85.5 -3t83 -9.5t62.5 -10.5t63 -13.5t46 -10.5l-2 -322h-37l-88 228q-86 77 -217 77q-65 0 -120.5 -27.5t-94 -73t-65.5 -104.5t-39.5 -122t-12.5 -125q0 -195 96 -323t261 -128q77 0 154 28.5t128 72.5z
" />
    <glyph glyph-name="egrave" unicode="&#xe8;" horiz-adv-x="1083" 
d="M778 1128l-430 179l55 127h29l365 -269zM596 -37q-108 0 -201.5 38t-163 107.5t-109.5 174t-40 231.5q0 107 39.5 201.5t106 161t157 105t190.5 38.5q147 0 247 -65.5t142.5 -173t36.5 -246.5l-745 -3q0 -226 104 -352.5t275 -126.5q84 0 168 38.5t137 92.5l49 -51
q-77 -81 -167.5 -125.5t-225.5 -44.5zM264 612h570q-5 153 -71 245.5t-200 92.5q-116 0 -200.5 -96.5t-98.5 -241.5z" />
    <glyph glyph-name="eacute" unicode="&#xe9;" horiz-adv-x="1083" 
d="M373 1128l-19 37l365 269h29l55 -127zM596 -37q-108 0 -201.5 38t-163 107.5t-109.5 174t-40 231.5q0 107 39.5 201.5t106 161t157 105t190.5 38.5q147 0 247 -65.5t142.5 -173t36.5 -246.5l-745 -3q0 -226 104 -352.5t275 -126.5q84 0 168 38.5t137 92.5l49 -51
q-77 -81 -167.5 -125.5t-225.5 -44.5zM264 612h570q-5 153 -71 245.5t-200 92.5q-116 0 -200.5 -96.5t-98.5 -241.5z" />
    <glyph glyph-name="ecircumflex" unicode="&#xea;" horiz-adv-x="1083" 
d="M287 1135v71l272 228h33l272 -228v-71l-289 170zM596 -37q-108 0 -201.5 38t-163 107.5t-109.5 174t-40 231.5q0 107 39.5 201.5t106 161t157 105t190.5 38.5q147 0 247 -65.5t142.5 -173t36.5 -246.5l-745 -3q0 -226 104 -352.5t275 -126.5q84 0 168 38.5t137 92.5
l49 -51q-77 -81 -167.5 -125.5t-225.5 -44.5zM264 612h570q-5 153 -71 245.5t-200 92.5q-116 0 -200.5 -96.5t-98.5 -241.5z" />
    <glyph glyph-name="edieresis" unicode="&#xeb;" horiz-adv-x="1083" 
d="M414 1190q-43 0 -74 30.5t-31 73.5t31 74t74 31q41 0 71.5 -31t30.5 -74t-30.5 -73.5t-71.5 -30.5zM743 1190q-43 0 -73.5 30.5t-30.5 73.5t30.5 74t73.5 31q41 0 72 -31t31 -74q0 -42 -31 -73t-72 -31zM596 -37q-108 0 -201.5 38t-163 107.5t-109.5 174t-40 231.5
q0 107 39.5 201.5t106 161t157 105t190.5 38.5q147 0 247 -65.5t142.5 -173t36.5 -246.5l-745 -3q0 -226 104 -352.5t275 -126.5q84 0 168 38.5t137 92.5l49 -51q-77 -81 -167.5 -125.5t-225.5 -44.5zM264 612h570q-5 153 -71 245.5t-200 92.5q-116 0 -200.5 -96.5
t-98.5 -241.5z" />
    <glyph glyph-name="igrave" unicode="&#xec;" horiz-adv-x="544" 
d="M135 1434l365 -269l-19 -37l-430 179l55 127h29zM354 86l99 -53v-33h-351v37l101 49v809l-94 51v35l245 10v-905z" />
    <glyph glyph-name="iacute" unicode="&#xed;" horiz-adv-x="544" 
d="M451 1434l55 -127l-430 -179l-19 37l365 269h29zM354 86l99 -53v-33h-351v37l101 49v809l-94 51v35l245 10v-905z" />
    <glyph glyph-name="icircumflex" unicode="&#xee;" horiz-adv-x="544" 
d="M295 1434l272 -228v-71l-288 170l-289 -170v71l272 228h33zM354 86l99 -53v-33h-351v37l101 49v809l-94 51v35l245 10v-905z" />
    <glyph glyph-name="idieresis" unicode="&#xef;" horiz-adv-x="544" 
d="M219 1294q0 -43 -30.5 -73.5t-71.5 -30.5q-43 0 -74 30.5t-31 73.5t31 74t74 31q41 0 71.5 -31t30.5 -74zM446 1399q41 0 72 -31t31 -74q0 -42 -30.5 -73t-72.5 -31q-43 0 -73.5 30.5t-30.5 73.5t30.5 74t73.5 31zM354 86l99 -53v-33h-351v37l101 49v809l-94 51v35
l245 10v-905z" />
    <glyph glyph-name="eth" unicode="&#xf0;" horiz-adv-x="1161" 
d="M807 1221q136 -137 204 -328t68 -418q0 -111 -40 -207.5t-107 -162.5t-157.5 -104t-190.5 -38q-210 0 -356 147.5t-146 364.5q0 143 69 258t183.5 177.5t249.5 62.5q151 0 278 -84q-55 171 -162 293l-225 -88v92l160 61q-125 111 -326 178l19 54q232 -55 407 -193l203 78
v-92zM584 35q100 0 173 60t108.5 158.5t35.5 221.5q0 184 -86 305t-231 121q-154 0 -238 -118.5t-84 -307.5q0 -195 83.5 -317.5t238.5 -122.5z" />
    <glyph glyph-name="ntilde" unicode="&#xf1;" horiz-adv-x="1187" 
d="M383 1221l-27 34q90 142 191 142q47 0 118 -27t107 -27q39 0 64.5 12t58.5 42l31 -25q-43 -71 -82.5 -104t-100.5 -33q-51 0 -118.5 28.5t-106.5 28.5q-68 0 -135 -71zM102 0v37l101 49v811l-97 51v35l242 8l6 -127q40 70 120.5 113t176.5 43q159 0 252.5 -90.5
t93.5 -237.5v-606l99 -53v-33h-351v37l101 49v600q0 116 -64.5 184t-171.5 68q-90 0 -158.5 -58.5t-97.5 -150.5v-643l99 -53v-33h-351z" />
    <glyph glyph-name="ograve" unicode="&#xf2;" horiz-adv-x="1161" 
d="M782 1128l-430 179l56 127h28l365 -269zM584 -37q-141 0 -257.5 73.5t-181 196.5t-63.5 267q0 219 145.5 369.5t356.5 150.5q138 0 252 -70t178.5 -189.5t64.5 -260.5q0 -149 -66 -272.5t-179.5 -194t-249.5 -70.5zM584 35q83 0 145.5 38t99 104.5t54.5 147.5t18 175
q0 124 -32 222.5t-105.5 162t-179.5 63.5q-86 0 -150 -35.5t-100.5 -98.5t-54 -141t-17.5 -173q0 -97 17 -178t53.5 -147t100.5 -103t151 -37z" />
    <glyph glyph-name="oacute" unicode="&#xf3;" horiz-adv-x="1161" 
d="M377 1128l-19 37l365 269h29l55 -127zM584 -37q-141 0 -257.5 73.5t-181 196.5t-63.5 267q0 219 145.5 369.5t356.5 150.5q138 0 252 -70t178.5 -189.5t64.5 -260.5q0 -149 -66 -272.5t-179.5 -194t-249.5 -70.5zM584 35q83 0 145.5 38t99 104.5t54.5 147.5t18 175
q0 124 -32 222.5t-105.5 162t-179.5 63.5q-86 0 -150 -35.5t-100.5 -98.5t-54 -141t-17.5 -173q0 -97 17 -178t53.5 -147t100.5 -103t151 -37z" />
    <glyph glyph-name="ocircumflex" unicode="&#xf4;" horiz-adv-x="1161" 
d="M291 1135v71l272 228h33l272 -228v-71l-288 170zM584 -37q-141 0 -257.5 73.5t-181 196.5t-63.5 267q0 219 145.5 369.5t356.5 150.5q138 0 252 -70t178.5 -189.5t64.5 -260.5q0 -149 -66 -272.5t-179.5 -194t-249.5 -70.5zM584 35q83 0 145.5 38t99 104.5t54.5 147.5
t18 175q0 124 -32 222.5t-105.5 162t-179.5 63.5q-86 0 -150 -35.5t-100.5 -98.5t-54 -141t-17.5 -173q0 -97 17 -178t53.5 -147t100.5 -103t151 -37z" />
    <glyph glyph-name="otilde" unicode="&#xf5;" horiz-adv-x="1161" 
d="M330 1221l-27 34q90 142 191 142q47 0 118 -27t107 -27q39 0 64.5 12t58.5 42l30 -25q-43 -72 -82 -104.5t-100 -32.5q-51 0 -118.5 28.5t-106.5 28.5q-68 0 -135 -71zM584 -37q-141 0 -257.5 73.5t-181 196.5t-63.5 267q0 219 145.5 369.5t356.5 150.5q138 0 252 -70
t178.5 -189.5t64.5 -260.5q0 -149 -66 -272.5t-179.5 -194t-249.5 -70.5zM584 35q83 0 145.5 38t99 104.5t54.5 147.5t18 175q0 124 -32 222.5t-105.5 162t-179.5 63.5q-86 0 -150 -35.5t-100.5 -98.5t-54 -141t-17.5 -173q0 -97 17 -178t53.5 -147t100.5 -103t151 -37z" />
    <glyph glyph-name="odieresis" unicode="&#xf6;" horiz-adv-x="1161" 
d="M418 1190q-43 0 -74 30.5t-31 73.5t31 74t74 31q41 0 71.5 -31t30.5 -74t-30.5 -73.5t-71.5 -30.5zM748 1190q-43 0 -74 30.5t-31 73.5t31 74t74 31q41 0 71.5 -31t30.5 -74t-30.5 -73.5t-71.5 -30.5zM584 -37q-141 0 -257.5 73.5t-181 196.5t-63.5 267
q0 219 145.5 369.5t356.5 150.5q138 0 252 -70t178.5 -189.5t64.5 -260.5q0 -149 -66 -272.5t-179.5 -194t-249.5 -70.5zM584 35q83 0 145.5 38t99 104.5t54.5 147.5t18 175q0 124 -32 222.5t-105.5 162t-179.5 63.5q-86 0 -150 -35.5t-100.5 -98.5t-54 -141t-17.5 -173
q0 -97 17 -178t53.5 -147t100.5 -103t151 -37z" />
    <glyph glyph-name="divide" unicode="&#xf7;" horiz-adv-x="1058" 
d="M528 764q-36 0 -61 25t-25 61q0 35 24.5 59.5t61.5 24.5q35 0 60.5 -24.5t25.5 -59.5t-25.5 -60.5t-60.5 -25.5zM10 543v106h1039v-106h-1039zM528 262q-37 0 -61.5 24.5t-24.5 61.5q0 34 25 59t61 25q35 0 60.5 -25t25.5 -59q0 -36 -25 -61t-61 -25z" />
    <glyph glyph-name="oslash" unicode="&#xf8;" horiz-adv-x="1161" 
d="M858 934q102 -70 161.5 -185t59.5 -249q0 -149 -66 -272.5t-179.5 -194t-249.5 -70.5q-113 0 -213 49l-74 -141h-92l96 182q-102 73 -161 191.5t-58 255.5q0 219 145.5 369.5t356.5 150.5q109 0 207 -45l77 147h88zM262 500q0 -233 88 -353l400 750q-70 51 -166 51
q-86 0 -150 -35.5t-100.5 -98.5t-54 -141t-17.5 -173zM584 35q83 0 145.5 38t99 104.5t54.5 147.5t18 175q0 220 -94 340l-395 -754q70 -51 172 -51z" />
    <glyph glyph-name="ugrave" unicode="&#xf9;" horiz-adv-x="1200" 
d="M797 1128l-430 179l55 127h29l364 -269zM557 -37q-168 0 -264 90.5t-96 237.5v604l-95 51v37l246 8v-694q0 -117 67 -184.5t183 -67.5q152 0 262 143v707l-94 51v37l246 8v-915l96 -35v-35l-238 -8v108q-122 -143 -313 -143z" />
    <glyph glyph-name="uacute" unicode="&#xfa;" horiz-adv-x="1200" 
d="M391 1128l-18 37l364 269h29l55 -127zM557 -37q-168 0 -264 90.5t-96 237.5v604l-95 51v37l246 8v-694q0 -117 67 -184.5t183 -67.5q152 0 262 143v707l-94 51v37l246 8v-915l96 -35v-35l-238 -8v108q-122 -143 -313 -143z" />
    <glyph glyph-name="ucircumflex" unicode="&#xfb;" horiz-adv-x="1200" 
d="M305 1135v71l273 228h32l273 -228v-71l-289 170zM557 -37q-168 0 -264 90.5t-96 237.5v604l-95 51v37l246 8v-694q0 -117 67 -184.5t183 -67.5q152 0 262 143v707l-94 51v37l246 8v-915l96 -35v-35l-238 -8v108q-122 -143 -313 -143z" />
    <glyph glyph-name="udieresis" unicode="&#xfc;" horiz-adv-x="1200" 
d="M432 1190q-43 0 -73.5 30.5t-30.5 73.5t30.5 74t73.5 31q41 0 72 -31t31 -74q0 -42 -30.5 -73t-72.5 -31zM762 1190q-43 0 -74 30.5t-31 73.5t31 74t74 31q41 0 71.5 -31t30.5 -74t-30.5 -73.5t-71.5 -30.5zM557 -37q-168 0 -264 90.5t-96 237.5v604l-95 51v37l246 8
v-694q0 -117 67 -184.5t183 -67.5q152 0 262 143v707l-94 51v37l246 8v-915l96 -35v-35l-238 -8v108q-122 -143 -313 -143z" />
    <glyph glyph-name="yacute" unicode="&#xfd;" horiz-adv-x="1130" 
d="M379 1128l-19 37l365 269h29l55 -127zM166 -451v37l160 60l182 389l-377 862l-100 49v37h385v-33l-103 -53l285 -676l305 676l-119 53v33h316v-37l-99 -49l-571 -1251l143 -64v-33h-407z" />
    <glyph glyph-name="thorn" unicode="&#xfe;" horiz-adv-x="1138" 
d="M602 1020q103 0 189.5 -40t144 -108.5t89.5 -160.5t32 -195q0 -145 -61.5 -271.5t-173.5 -204t-249 -77.5q-124 0 -241 80v-385l100 -53v-33h-350v37l100 49v1690l-94 51v35l246 10v-526q120 102 268 102zM561 43q101 0 174 66.5t107.5 171.5t34.5 233q0 192 -84 312
t-230 120q-124 0 -229 -117v-686q115 -100 227 -100z" />
    <glyph glyph-name="ydieresis" unicode="&#xff;" horiz-adv-x="1130" 
d="M420 1190q-43 0 -74 30.5t-31 73.5t31 74t74 31q41 0 71.5 -31t30.5 -74t-30.5 -73.5t-71.5 -30.5zM750 1190q-43 0 -74 30.5t-31 73.5t31 74t74 31q41 0 71.5 -31t30.5 -74t-30.5 -73.5t-71.5 -30.5zM166 -451v37l160 60l182 389l-377 862l-100 49v37h385v-33l-103 -53
l285 -676l305 676l-119 53v33h316v-37l-99 -49l-571 -1251l143 -64v-33h-407z" />
    <glyph glyph-name="Amacron" unicode="&#x100;" horiz-adv-x="1449" 
d="M942 1788v-94h-520v94h520zM1292 86l97 -53v-33h-418v33l131 53l-146 360h-536l-129 -360l143 -53v-33h-373v33l121 53l445 1178l-70 170h174zM453 535h467l-248 612z" />
    <glyph glyph-name="amacron" unicode="&#x101;" horiz-adv-x="1062" 
d="M256 1243v94h520v-94h-520zM424 -37q-157 0 -244.5 76.5t-87.5 212.5q0 90 54.5 163t145.5 119t204 70.5t235 24.5q0 138 -70.5 214.5t-195.5 76.5q-88 0 -156.5 -41.5t-111.5 -112.5l-68 45q114 209 354 209q187 0 293.5 -111.5t106.5 -308.5v-514l98 -53v-33h-233
l-11 141q-37 -72 -116.5 -125t-196.5 -53zM459 45q109 0 190.5 89.5t81.5 203.5v225q-110 -9 -192 -28t-148 -53.5t-100.5 -90.5t-34.5 -133q0 -98 55 -155.5t148 -57.5z" />
    <glyph glyph-name="Abreve" unicode="&#x102;" horiz-adv-x="1449" 
d="M686 1585q-70 0 -125.5 25t-89.5 67.5t-52 95.5t-18 111h52q43 -186 233 -186q191 0 234 186h51q0 -121 -77.5 -210t-207.5 -89zM1292 86l97 -53v-33h-418v33l131 53l-146 360h-536l-129 -360l143 -53v-33h-373v33l121 53l445 1178l-70 170h174zM453 535h467l-248 612z
" />
    <glyph glyph-name="abreve" unicode="&#x103;" horiz-adv-x="1062" 
d="M520 1135q-92 0 -158.5 44t-96 110t-29.5 145h51q20 -87 77.5 -137t155.5 -50q191 0 234 187h51q0 -121 -77.5 -210t-207.5 -89zM424 -37q-157 0 -244.5 76.5t-87.5 212.5q0 90 54.5 163t145.5 119t204 70.5t235 24.5q0 138 -70.5 214.5t-195.5 76.5q-88 0 -156.5 -41.5
t-111.5 -112.5l-68 45q114 209 354 209q187 0 293.5 -111.5t106.5 -308.5v-514l98 -53v-33h-233l-11 141q-37 -72 -116.5 -125t-196.5 -53zM459 45q109 0 190.5 89.5t81.5 203.5v225q-110 -9 -192 -28t-148 -53.5t-100.5 -90.5t-34.5 -133q0 -98 55 -155.5t148 -57.5z" />
    <glyph glyph-name="Aogonek" unicode="&#x104;" horiz-adv-x="1449" 
d="M1389 0h-58q-63 -75 -103 -149.5t-40 -129.5q0 -48 28.5 -73t71.5 -25q38 0 84 12l17 -51q-54 -22 -123 -22q-62 0 -109.5 13.5t-80 48t-32.5 87.5q0 69 57 139t159 150h-289v33l131 53l-146 360h-536l-129 -360l143 -53v-33h-373v33l121 53l445 1178l-70 170h174
l561 -1348l97 -53v-33zM453 535h467l-248 612z" />
    <glyph glyph-name="aogonek" unicode="&#x105;" horiz-adv-x="1062" 
d="M981 0h-59q-64 -75 -104 -150t-40 -129q0 -48 29 -73t72 -25q38 0 84 12l16 -51q-54 -22 -123 -22q-96 0 -158.5 35.5t-62.5 113.5q0 69 57 139.5t158 149.5h-102l-11 141q-37 -72 -116.5 -125t-196.5 -53q-157 0 -244.5 76.5t-87.5 212.5q0 90 54.5 163t145.5 119
t204 70.5t235 24.5q0 138 -70.5 214.5t-195.5 76.5q-88 0 -156.5 -41.5t-111.5 -112.5l-68 45q114 209 354 209q187 0 293.5 -111.5t106.5 -308.5v-514l98 -53v-33zM731 338v225q-110 -9 -192 -28t-148 -53.5t-100.5 -90.5t-34.5 -133q0 -98 55 -155.5t148 -57.5
q109 0 190.5 89.5t81.5 203.5z" />
    <glyph glyph-name="Cacute" unicode="&#x106;" horiz-adv-x="1404" 
d="M618 1579l-18 37l365 268h28l56 -127zM827 -37q-155 0 -285 52.5t-222.5 148.5t-144.5 238t-52 315q0 172 55 315t150 238t223.5 147.5t275.5 52.5q122 0 215 -14t207 -47l-6 -328h-37l-125 242q-112 74 -252 74q-126 0 -225.5 -52t-163 -144t-96.5 -215t-33 -269
q0 -119 16.5 -218t55 -184t97.5 -143.5t147.5 -91.5t201.5 -33q57 0 135 21t130 57l125 227h36l7 -319q-241 -70 -435 -70z" />
    <glyph glyph-name="cacute" unicode="&#x107;" horiz-adv-x="1073" 
d="M389 1128l-18 37l364 269h29l55 -127zM600 -37q-223 0 -370.5 142t-147.5 380q0 231 145.5 383t372.5 152q44 0 85.5 -3t83 -9.5t62.5 -10.5t63 -13.5t46 -10.5l-2 -322h-37l-88 228q-86 77 -217 77q-65 0 -120.5 -27.5t-94 -73t-65.5 -104.5t-39.5 -122t-12.5 -125
q0 -195 96 -323t261 -128q77 0 154 28.5t128 72.5l37 -58q-133 -133 -340 -133z" />
    <glyph glyph-name="Ccircumflex" unicode="&#x108;" horiz-adv-x="1404" 
d="M532 1585v72l273 227h33l272 -227v-72l-289 170zM827 -37q-155 0 -285 52.5t-222.5 148.5t-144.5 238t-52 315q0 172 55 315t150 238t223.5 147.5t275.5 52.5q122 0 215 -14t207 -47l-6 -328h-37l-125 242q-112 74 -252 74q-126 0 -225.5 -52t-163 -144t-96.5 -215
t-33 -269q0 -119 16.5 -218t55 -184t97.5 -143.5t147.5 -91.5t201.5 -33q57 0 135 21t130 57l125 227h36l7 -319q-241 -70 -435 -70z" />
    <glyph glyph-name="ccircumflex" unicode="&#x109;" horiz-adv-x="1073" 
d="M303 1135v71l272 228h33l273 -228v-71l-289 170zM600 -37q-223 0 -370.5 142t-147.5 380q0 231 145.5 383t372.5 152q44 0 85.5 -3t83 -9.5t62.5 -10.5t63 -13.5t46 -10.5l-2 -322h-37l-88 228q-86 77 -217 77q-65 0 -120.5 -27.5t-94 -73t-65.5 -104.5t-39.5 -122
t-12.5 -125q0 -195 96 -323t261 -128q77 0 154 28.5t128 72.5l37 -58q-133 -133 -340 -133z" />
    <glyph glyph-name="Cdotaccent" unicode="&#x10a;" horiz-adv-x="1404" 
d="M825 1645q-44 0 -76 32t-32 76t32 76.5t76 32.5q43 0 75 -32.5t32 -76.5t-32 -76t-75 -32zM827 -37q-155 0 -285 52.5t-222.5 148.5t-144.5 238t-52 315q0 172 55 315t150 238t223.5 147.5t275.5 52.5q122 0 215 -14t207 -47l-6 -328h-37l-125 242q-112 74 -252 74
q-126 0 -225.5 -52t-163 -144t-96.5 -215t-33 -269q0 -119 16.5 -218t55 -184t97.5 -143.5t147.5 -91.5t201.5 -33q57 0 135 21t130 57l125 227h36l7 -319q-241 -70 -435 -70z" />
    <glyph glyph-name="cdotaccent" unicode="&#x10b;" horiz-adv-x="1073" 
d="M596 1194q-44 0 -76.5 32.5t-32.5 76.5t32.5 76t76.5 32q43 0 74.5 -32t31.5 -76t-31.5 -76.5t-74.5 -32.5zM600 -37q-223 0 -370.5 142t-147.5 380q0 231 145.5 383t372.5 152q44 0 85.5 -3t83 -9.5t62.5 -10.5t63 -13.5t46 -10.5l-2 -322h-37l-88 228q-86 77 -217 77
q-65 0 -120.5 -27.5t-94 -73t-65.5 -104.5t-39.5 -122t-12.5 -125q0 -195 96 -323t261 -128q77 0 154 28.5t128 72.5l37 -58q-133 -133 -340 -133z" />
    <glyph glyph-name="Ccaron" unicode="&#x10c;" horiz-adv-x="1404" 
d="M809 1585l-272 227v72l288 -170l289 170v-72l-272 -227h-33zM827 -37q-155 0 -285 52.5t-222.5 148.5t-144.5 238t-52 315q0 172 55 315t150 238t223.5 147.5t275.5 52.5q122 0 215 -14t207 -47l-6 -328h-37l-125 242q-112 74 -252 74q-126 0 -225.5 -52t-163 -144
t-96.5 -215t-33 -269q0 -119 16.5 -218t55 -184t97.5 -143.5t147.5 -91.5t201.5 -33q57 0 135 21t130 57l125 227h36l7 -319q-241 -70 -435 -70z" />
    <glyph glyph-name="ccaron" unicode="&#x10d;" horiz-adv-x="1073" 
d="M580 1135l-273 227v72l289 -170l289 170v-72l-273 -227h-32zM600 -37q-223 0 -370.5 142t-147.5 380q0 231 145.5 383t372.5 152q44 0 85.5 -3t83 -9.5t62.5 -10.5t63 -13.5t46 -10.5l-2 -322h-37l-88 228q-86 77 -217 77q-65 0 -120.5 -27.5t-94 -73t-65.5 -104.5
t-39.5 -122t-12.5 -125q0 -195 96 -323t261 -128q77 0 154 28.5t128 72.5l37 -58q-133 -133 -340 -133z" />
    <glyph glyph-name="Dcaron" unicode="&#x10e;" horiz-adv-x="1509" 
d="M707 1585l-273 227v72l289 -170l289 170v-72l-273 -227h-32zM143 0v37l111 49v1260l-111 49v39h537q177 0 314 -55.5t221.5 -153.5t127.5 -226t43 -280q0 -118 -28 -224.5t-85.5 -197.5t-140 -157t-198.5 -103t-254 -37h-537zM426 88h233q108 0 197.5 34.5t151.5 94
t105 140.5t63 172t20 190q0 631 -537 631h-233v-1262z" />
    <glyph glyph-name="dcaron" unicode="&#x10f;" horiz-adv-x="1228" 
d="M569 -37q-139 0 -251.5 70.5t-174 189.5t-61.5 262q0 145 61.5 267t176.5 195t260 73q73 0 149 -30.5t121 -84.5v443l-98 51v35l249 10v-1331l103 -56v-34l-254 -23v80q-47 -51 -120 -84t-161 -33zM1106 1102v332h160v-52l-127 -280h-33zM594 41q73 0 147.5 42.5
t108.5 102.5v621q-44 64 -115 101.5t-145 37.5q-158 0 -243 -126.5t-85 -327.5q0 -195 90 -323t242 -128z" />
    <glyph glyph-name="Dcroat" unicode="&#x110;" horiz-adv-x="1601" 
d="M772 1434q142 0 259.5 -36.5t199.5 -101t138.5 -154.5t83 -196t26.5 -227q0 -118 -28 -224.5t-85.5 -197.5t-140.5 -157t-199 -103t-254 -37h-536v37l110 49v608h-203v88h203v564l-110 49v39h536zM752 88q108 0 197.5 34.5t151 94t104.5 140.5t63 172t20 190
q0 631 -536 631h-234v-568h342v-88h-342v-606h234z" />
    <glyph glyph-name="dcroat" unicode="&#x111;" horiz-adv-x="1206" 
d="M1149 1169h-148v-1056l103 -56v-34l-254 -23v80q-47 -51 -120 -84t-161 -33q-139 0 -251.5 70.5t-174 189.5t-61.5 262q0 145 61.5 267t176.5 195t260 73q73 0 149 -30.5t121 -84.5v264h-309v78h309v101l-98 51v35l249 10v-197h148v-78zM850 186v621q-44 64 -115 101.5
t-145 37.5q-158 0 -243 -126.5t-85 -327.5q0 -195 90 -323t242 -128q73 0 147.5 42.5t108.5 102.5z" />
    <glyph glyph-name="Emacron" unicode="&#x112;" horiz-adv-x="1280" 
d="M422 1694v94h520v-94h-520zM145 0v37l111 49l-2 1262l-111 49v37h938l31 -330h-37l-135 246h-512v-557l475 10v-107l-475 17v-625h588l125 260h37l-21 -348h-1012z" />
    <glyph glyph-name="emacron" unicode="&#x113;" horiz-adv-x="1083" 
d="M315 1243v94h521v-94h-521zM596 -37q-108 0 -201.5 38t-163 107.5t-109.5 174t-40 231.5q0 107 39.5 201.5t106 161t157 105t190.5 38.5q147 0 247 -65.5t142.5 -173t36.5 -246.5l-745 -3q0 -226 104 -352.5t275 -126.5q84 0 168 38.5t137 92.5l49 -51
q-77 -81 -167.5 -125.5t-225.5 -44.5zM264 612h570q-5 153 -71 245.5t-200 92.5q-116 0 -200.5 -96.5t-98.5 -241.5z" />
    <glyph glyph-name="Ebreve" unicode="&#x114;" horiz-adv-x="1280" 
d="M686 1585q-70 0 -125.5 25t-89.5 67.5t-52 95.5t-18 111h52q43 -186 233 -186q191 0 234 186h51q0 -121 -77.5 -210t-207.5 -89zM145 0v37l111 49l-2 1262l-111 49v37h938l31 -330h-37l-135 246h-512v-557l475 10v-107l-475 17v-625h588l125 260h37l-21 -348h-1012z" />
    <glyph glyph-name="ebreve" unicode="&#x115;" horiz-adv-x="1083" 
d="M580 1135q-70 0 -125.5 25t-89.5 67.5t-52 95.5t-18 111h51q20 -87 78 -137t156 -50q190 0 233 187h51q0 -121 -77 -210t-207 -89zM596 -37q-108 0 -201.5 38t-163 107.5t-109.5 174t-40 231.5q0 107 39.5 201.5t106 161t157 105t190.5 38.5q147 0 247 -65.5t142.5 -173
t36.5 -246.5l-745 -3q0 -226 104 -352.5t275 -126.5q84 0 168 38.5t137 92.5l49 -51q-77 -81 -167.5 -125.5t-225.5 -44.5zM264 612h570q-5 153 -71 245.5t-200 92.5q-116 0 -200.5 -96.5t-98.5 -241.5z" />
    <glyph glyph-name="Edotaccent" unicode="&#x116;" horiz-adv-x="1280" 
d="M686 1645q-44 0 -76 32t-32 76t32 76.5t76 32.5q43 0 75 -32.5t32 -76.5t-32 -76t-75 -32zM145 0v37l111 49l-2 1262l-111 49v37h938l31 -330h-37l-135 246h-512v-557l475 10v-107l-475 17v-625h588l125 260h37l-21 -348h-1012z" />
    <glyph glyph-name="edotaccent" unicode="&#x117;" horiz-adv-x="1083" 
d="M580 1194q-44 0 -76.5 32.5t-32.5 76.5t32.5 76t76.5 32q43 0 74.5 -32t31.5 -76t-31.5 -76.5t-74.5 -32.5zM596 -37q-108 0 -201.5 38t-163 107.5t-109.5 174t-40 231.5q0 107 39.5 201.5t106 161t157 105t190.5 38.5q147 0 247 -65.5t142.5 -173t36.5 -246.5l-745 -3
q0 -226 104 -352.5t275 -126.5q84 0 168 38.5t137 92.5l49 -51q-77 -81 -167.5 -125.5t-225.5 -44.5zM264 612h570q-5 153 -71 245.5t-200 92.5q-116 0 -200.5 -96.5t-98.5 -241.5z" />
    <glyph glyph-name="Eogonek" unicode="&#x118;" horiz-adv-x="1280" 
d="M1157 0h-63q-64 -75 -104 -150t-40 -129q0 -48 29 -73t72 -25q38 0 84 12l16 -51q-54 -22 -123 -22q-96 0 -158.5 35.5t-62.5 113.5q0 69 57 139.5t158 149.5h-877v37l111 49l-2 1262l-111 49v37h938l31 -330h-37l-135 246h-512v-557l475 10v-107l-475 17v-625h588
l125 260h37z" />
    <glyph glyph-name="eogonek" unicode="&#x119;" horiz-adv-x="1083" 
d="M575 1020q147 0 247 -65.5t142.5 -173t36.5 -246.5l-745 -3q0 -226 104 -352.5t275 -126.5q84 0 168 38.5t137 92.5l49 -51q-108 -112 -227 -147q-58 -71 -94.5 -142t-36.5 -123q0 -48 28.5 -73t71.5 -25q38 0 84 12l16 -51q-54 -22 -122 -22q-62 0 -109.5 13.5t-80 48
t-32.5 87.5q0 108 175 254q-10 0 -32 -1t-34 -1q-108 0 -201.5 38t-163 107.5t-109.5 174t-40 231.5q0 107 39.5 201.5t106 161t157 105t190.5 38.5zM264 612h570q-5 153 -71 245.5t-200 92.5q-116 0 -200.5 -96.5t-98.5 -241.5z" />
    <glyph glyph-name="Ecaron" unicode="&#x11a;" horiz-adv-x="1280" 
d="M670 1585l-273 227v72l289 -170l289 170v-72l-273 -227h-32zM145 0v37l111 49l-2 1262l-111 49v37h938l31 -330h-37l-135 246h-512v-557l475 10v-107l-475 17v-625h588l125 260h37l-21 -348h-1012z" />
    <glyph glyph-name="ecaron" unicode="&#x11b;" horiz-adv-x="1083" 
d="M563 1135l-272 227v72l289 -170l288 170v-72l-272 -227h-33zM596 -37q-108 0 -201.5 38t-163 107.5t-109.5 174t-40 231.5q0 107 39.5 201.5t106 161t157 105t190.5 38.5q147 0 247 -65.5t142.5 -173t36.5 -246.5l-745 -3q0 -226 104 -352.5t275 -126.5q84 0 168 38.5
t137 92.5l49 -51q-77 -81 -167.5 -125.5t-225.5 -44.5zM264 612h570q-5 153 -71 245.5t-200 92.5q-116 0 -200.5 -96.5t-98.5 -241.5z" />
    <glyph glyph-name="Gcircumflex" unicode="&#x11c;" horiz-adv-x="1542" 
d="M543 1585v72l272 227h33l272 -227v-72l-289 170zM807 -37q-212 0 -368 95t-236 264.5t-80 394.5q0 172 56.5 315t155.5 238t233.5 147.5t289.5 52.5q217 0 432 -61l-6 -328h-37l-125 236q-130 74 -282 74q-168 0 -289 -89t-180.5 -239.5t-59.5 -345.5q0 -112 18.5 -210.5
t58 -183.5t98 -146t143 -95.5t188.5 -34.5q92 0 181.5 30.5t152.5 78.5v465l-211 59v37h490v-33l-107 -53v-535q-205 -133 -516 -133z" />
    <glyph glyph-name="gcircumflex" unicode="&#x11d;" horiz-adv-x="1187" 
d="M881 1135l-289 170l-289 -170v71l272 228h33l273 -228v-71zM1085 1020v-119h-211q93 -96 93 -242q0 -112 -55.5 -195t-144.5 -124t-196 -41q-135 0 -239 66q-52 -24 -87.5 -65.5t-35.5 -90.5q0 -60 52.5 -83.5t168.5 -23.5h313q158 0 241 -54t83 -185
q0 -104 -68.5 -184.5t-178.5 -122t-240 -41.5q-178 0 -277.5 63t-99.5 184q0 65 30 127l156 33l4 -14q-43 -77 -43 -146q0 -79 63 -132.5t187 -53.5q81 0 158 30.5t129.5 92t52.5 137.5q0 56 -43.5 86.5t-126.5 30.5h-354q-161 0 -237.5 59t-76.5 164q0 78 47.5 137.5
t122.5 98.5q-96 99 -96 247q0 112 55 195.5t144 124.5t196 41q117 0 211 -49l287 49h16zM571 360q112 0 172 84t60 215t-60 215t-172 84t-171.5 -84t-59.5 -215t59.5 -215t171.5 -84z" />
    <glyph glyph-name="Gbreve" unicode="&#x11e;" horiz-adv-x="1542" 
d="M836 1585q-70 0 -125.5 25t-89.5 67.5t-52 95.5t-18 111h51q20 -86 78 -136t156 -50q190 0 233 186h51q0 -121 -77 -210t-207 -89zM807 -37q-212 0 -368 95t-236 264.5t-80 394.5q0 172 56.5 315t155.5 238t233.5 147.5t289.5 52.5q217 0 432 -61l-6 -328h-37l-125 236
q-130 74 -282 74q-168 0 -289 -89t-180.5 -239.5t-59.5 -345.5q0 -112 18.5 -210.5t58 -183.5t98 -146t143 -95.5t188.5 -34.5q92 0 181.5 30.5t152.5 78.5v465l-211 59v37h490v-33l-107 -53v-535q-205 -133 -516 -133z" />
    <glyph glyph-name="gbreve" unicode="&#x11f;" horiz-adv-x="1187" 
d="M596 1135q-70 0 -125.5 25t-89.5 67.5t-52 95.5t-18 111h51q20 -87 78 -137t156 -50q190 0 233 187h52q0 -121 -77.5 -210t-207.5 -89zM1085 1020v-119h-211q93 -96 93 -242q0 -112 -55.5 -195t-144.5 -124t-196 -41q-135 0 -239 66q-52 -24 -87.5 -65.5t-35.5 -90.5
q0 -60 52.5 -83.5t168.5 -23.5h313q158 0 241 -54t83 -185q0 -104 -68.5 -184.5t-178.5 -122t-240 -41.5q-178 0 -277.5 63t-99.5 184q0 65 30 127l156 33l4 -14q-43 -77 -43 -146q0 -79 63 -132.5t187 -53.5q81 0 158 30.5t129.5 92t52.5 137.5q0 56 -43.5 86.5
t-126.5 30.5h-354q-161 0 -237.5 59t-76.5 164q0 78 47.5 137.5t122.5 98.5q-96 99 -96 247q0 112 55 195.5t144 124.5t196 41q117 0 211 -49l287 49h16zM571 360q112 0 172 84t60 215t-60 215t-172 84t-171.5 -84t-59.5 -215t59.5 -215t171.5 -84z" />
    <glyph glyph-name="Gdotaccent" unicode="&#x120;" horiz-adv-x="1542" 
d="M836 1645q-44 0 -76.5 32t-32.5 76t32.5 76.5t76.5 32.5q43 0 74.5 -32.5t31.5 -76.5t-31.5 -76t-74.5 -32zM807 -37q-212 0 -368 95t-236 264.5t-80 394.5q0 172 56.5 315t155.5 238t233.5 147.5t289.5 52.5q217 0 432 -61l-6 -328h-37l-125 236q-130 74 -282 74
q-168 0 -289 -89t-180.5 -239.5t-59.5 -345.5q0 -112 18.5 -210.5t58 -183.5t98 -146t143 -95.5t188.5 -34.5q92 0 181.5 30.5t152.5 78.5v465l-211 59v37h490v-33l-107 -53v-535q-205 -133 -516 -133z" />
    <glyph glyph-name="gdotaccent" unicode="&#x121;" horiz-adv-x="1187" 
d="M596 1194q-44 0 -76.5 32.5t-32.5 76.5t32.5 76t76.5 32q43 0 74.5 -32t31.5 -76t-31.5 -76.5t-74.5 -32.5zM1085 1020v-119h-211q93 -96 93 -242q0 -112 -55.5 -195t-144.5 -124t-196 -41q-135 0 -239 66q-52 -24 -87.5 -65.5t-35.5 -90.5q0 -60 52.5 -83.5t168.5 -23.5
h313q158 0 241 -54t83 -185q0 -104 -68.5 -184.5t-178.5 -122t-240 -41.5q-178 0 -277.5 63t-99.5 184q0 65 30 127l156 33l4 -14q-43 -77 -43 -146q0 -79 63 -132.5t187 -53.5q81 0 158 30.5t129.5 92t52.5 137.5q0 56 -43.5 86.5t-126.5 30.5h-354q-161 0 -237.5 59
t-76.5 164q0 78 47.5 137.5t122.5 98.5q-96 99 -96 247q0 112 55 195.5t144 124.5t196 41q117 0 211 -49l287 49h16zM571 360q112 0 172 84t60 215t-60 215t-172 84t-171.5 -84t-59.5 -215t59.5 -215t171.5 -84z" />
    <glyph glyph-name="uni0122" unicode="&#x122;" horiz-adv-x="1542" 
d="M807 -37q-212 0 -368 95t-236 264.5t-80 394.5q0 172 56.5 315t155.5 238t233.5 147.5t289.5 52.5q217 0 432 -61l-6 -328h-37l-125 236q-130 74 -282 74q-168 0 -289 -89t-180.5 -239.5t-59.5 -345.5q0 -112 18.5 -210.5t58 -183.5t98 -146t143 -95.5t188.5 -34.5
q92 0 181.5 30.5t152.5 78.5v465l-211 59v37h490v-33l-107 -53v-535q-205 -133 -516 -133zM709 -410l28 312h146v-52l-142 -260h-32z" />
    <glyph glyph-name="uni0123" unicode="&#x123;" horiz-adv-x="1187" 
d="M698 1417l-28 -311h-146v51l142 260h32zM1085 1020v-119h-211q93 -96 93 -242q0 -112 -55.5 -195t-144.5 -124t-196 -41q-135 0 -239 66q-52 -24 -87.5 -65.5t-35.5 -90.5q0 -60 52.5 -83.5t168.5 -23.5h313q158 0 241 -54t83 -185q0 -104 -68.5 -184.5t-178.5 -122
t-240 -41.5q-178 0 -277.5 63t-99.5 184q0 65 30 127l156 33l4 -14q-43 -77 -43 -146q0 -79 63 -132.5t187 -53.5q81 0 158 30.5t129.5 92t52.5 137.5q0 56 -43.5 86.5t-126.5 30.5h-354q-161 0 -237.5 59t-76.5 164q0 78 47.5 137.5t122.5 98.5q-96 99 -96 247
q0 112 55 195.5t144 124.5t196 41q117 0 211 -49l287 49h16zM571 360q112 0 172 84t60 215t-60 215t-172 84t-171.5 -84t-59.5 -215t59.5 -215t171.5 -84z" />
    <glyph glyph-name="Hcircumflex" unicode="&#x124;" horiz-adv-x="1570" 
d="M498 1585v72l272 227h33l272 -227v-72l-289 170zM143 0v37l111 49v1262l-111 49v37h389v-33l-106 -53v-535h723v535l-111 49v37h389v-33l-106 -53v-1262l106 -53v-33h-389v37l111 49v635h-723v-635l106 -53v-33h-389z" />
    <glyph glyph-name="hcircumflex" unicode="&#x125;" horiz-adv-x="1169" 
d="M-31 1524v71l273 228h32l273 -228v-71l-289 170zM92 0v37l101 49v1262l-99 51v35l250 10v-572q43 69 121 108.5t172 39.5q159 0 250.5 -90.5t91.5 -237.5v-606l98 -53v-33h-354v37l100 49v600q0 117 -60.5 184.5t-166.5 67.5q-86 0 -155 -56.5t-97 -144.5v-651l98 -53
v-33h-350z" />
    <glyph glyph-name="Hbar" unicode="&#x126;" horiz-adv-x="1599" 
d="M1456 1042h-123v-956l107 -53v-33h-389v37l110 49v635h-723v-635l107 -53v-33h-389v37l110 49v956h-123v88h123v218l-110 49v37h389v-33l-107 -53v-218h723v218l-110 49v37h389v-33l-107 -53v-218h123v-88zM1161 813v229h-723v-229h723z" />
    <glyph glyph-name="hbar" unicode="&#x127;" horiz-adv-x="1179" 
d="M979 86l98 -53v-33h-354v37l100 49v600q0 117 -60.5 184.5t-166.5 67.5q-86 0 -155 -56.5t-97 -144.5v-651l98 -53v-33h-350v37l101 49v1083h-140v78h140v101l-99 51v35l250 10v-197h318v-78h-318v-297q43 69 121 108.5t172 39.5q159 0 250.5 -90.5t91.5 -237.5v-606z
" />
    <glyph glyph-name="Itilde" unicode="&#x128;" horiz-adv-x="675" 
d="M86 1671l-27 35q89 141 191 141q47 0 118 -26.5t107 -26.5q39 0 64.5 11.5t58.5 41.5l31 -24q-43 -71 -82.5 -104t-100.5 -33q-51 0 -118.5 28.5t-106.5 28.5q-41 0 -72 -19t-63 -53zM143 0v37l111 49v1262l-111 49v37h389v-33l-106 -53v-1262l106 -53v-33h-389z" />
    <glyph glyph-name="itilde" unicode="&#x129;" horiz-adv-x="544" 
d="M541 1397l30 -25q-43 -72 -82 -104.5t-100 -32.5q-51 0 -118.5 28.5t-106.5 28.5q-68 0 -135 -71l-27 34q90 142 191 142q47 0 118 -27t107 -27q39 0 64.5 12t58.5 42zM354 86l99 -53v-33h-351v37l101 49v809l-94 51v35l245 10v-905z" />
    <glyph glyph-name="Imacron" unicode="&#x12a;" horiz-adv-x="675" 
d="M76 1694v94h520v-94h-520zM143 0v37l111 49v1262l-111 49v37h389v-33l-106 -53v-1262l106 -53v-33h-389z" />
    <glyph glyph-name="imacron" unicode="&#x12b;" horiz-adv-x="544" 
d="M18 1337h521v-94h-521v94zM354 86l99 -53v-33h-351v37l101 49v809l-94 51v35l245 10v-905z" />
    <glyph glyph-name="Ibreve" unicode="&#x12c;" horiz-adv-x="675" 
d="M340 1585q-70 0 -125.5 25t-89.5 67.5t-52 95.5t-18 111h51q20 -86 78 -136t156 -50q190 0 233 186h52q0 -121 -77.5 -210t-207.5 -89zM143 0v37l111 49v1262l-111 49v37h389v-33l-106 -53v-1262l106 -53v-33h-389z" />
    <glyph glyph-name="ibreve" unicode="&#x12d;" horiz-adv-x="544" 
d="M516 1434h51q0 -121 -77 -210t-207 -89q-70 0 -125.5 25t-89.5 67.5t-52 95.5t-18 111h51q20 -87 78 -137t156 -50q190 0 233 187zM354 86l99 -53v-33h-351v37l101 49v809l-94 51v35l245 10v-905z" />
    <glyph glyph-name="Iogonek" unicode="&#x12e;" horiz-adv-x="675" 
d="M520 -365l17 -51q-54 -22 -123 -22q-96 0 -158.5 35.5t-62.5 113.5q0 69 57 139.5t158 149.5h-265v37l111 49v1262l-111 49v37h389v-33l-106 -53v-1262l106 -53v-33h-53q-63 -75 -103 -149.5t-40 -129.5q0 -48 28.5 -73t71.5 -25q38 0 84 12z" />
    <glyph glyph-name="iogonek" unicode="&#x12f;" horiz-adv-x="544" 
d="M283 1194q-44 0 -76.5 32.5t-32.5 76.5t32.5 76t76.5 32q43 0 74.5 -32t31.5 -76t-31.5 -76.5t-74.5 -32.5zM453 0h-84q-64 -75 -104 -150t-40 -129q0 -48 29 -73t72 -25q38 0 84 12l16 -51q-54 -22 -123 -22q-96 0 -158.5 35.5t-62.5 113.5q0 69 57 139.5t158 149.5
h-195v37l101 49v809l-94 51v35l245 10v-905l99 -53v-33z" />
    <glyph glyph-name="Idotaccent" unicode="&#x130;" horiz-adv-x="675" 
d="M340 1645q-44 0 -76.5 32t-32.5 76t32.5 76.5t76.5 32.5q43 0 74.5 -32.5t31.5 -76.5t-31.5 -76t-74.5 -32zM143 0v37l111 49v1262l-111 49v37h389v-33l-106 -53v-1262l106 -53v-33h-389z" />
    <glyph glyph-name="dotlessi" unicode="&#x131;" horiz-adv-x="544" 
d="M354 86l99 -53v-33h-351v37l101 49v809l-94 51v35l245 10v-905z" />
    <glyph glyph-name="IJ" unicode="&#x132;" horiz-adv-x="1544" 
d="M143 0v37l111 49v1262l-111 49v37h389v-33l-106 -53v-1262l106 -53v-33h-389zM954 -37q-106 0 -237 57l2 287h37l94 -246q45 -30 106 -30q51 0 86 24t54.5 72.5t28 111t8.5 148.5v961l-136 49v37h414v-33l-106 -53v-967q0 -109 -28 -191.5t-77.5 -131t-111 -72
t-134.5 -23.5z" />
    <glyph glyph-name="ij" unicode="&#x133;" horiz-adv-x="1128" 
d="M272 1231q-44 0 -76 32t-32 76t32 76.5t76 32.5q43 0 75 -32.5t32 -76.5t-32 -76t-75 -32zM858 1231q-44 0 -76 32t-32 76t32 76.5t76 32.5q43 0 75 -32.5t32 -76.5t-32 -76t-75 -32zM102 0v37l101 49v811l-97 51v35l248 8v-905l99 -53v-33h-351zM684 -485
q-22 0 -41.5 2.5t-35 7.5t-25.5 9t-22 10t-15 7l2 287h37l88 -215q25 -14 51 -14q40 0 66.5 34t23.5 93l-14 266l-2 893l-115 53v35l270 8v-1016q0 -133 -27 -233.5t-88.5 -163.5t-152.5 -63z" />
    <glyph glyph-name="Jcircumflex" unicode="&#x134;" horiz-adv-x="909" 
d="M291 1585v72l272 227h33l272 -227v-72l-288 170zM319 -37q-106 0 -237 57l2 287h37l94 -246q45 -30 107 -30q51 0 86 24t54.5 72.5t27.5 111t8 148.5v961l-136 49v37h414v-33l-106 -53v-967q0 -109 -28 -191.5t-77.5 -131t-111 -72t-134.5 -23.5z" />
    <glyph glyph-name="jcircumflex" unicode="&#x135;" horiz-adv-x="583" 
d="M37 1135v71l272 228h33l272 -228v-71l-288 170zM139 -485q-22 0 -41.5 2.5t-35 7.5t-25.5 9t-22 10t-15 7l2 287h37l88 -215q25 -14 51 -14q40 0 66.5 34t23.5 93l-14 266l-2 893l-115 51v35l271 10v-1016q0 -98 -16 -180t-48 -145.5t-84 -99t-121 -35.5z" />
    <glyph glyph-name="uni0136" unicode="&#x136;" horiz-adv-x="1421" 
d="M143 0v37l111 49v1262l-111 49v37h392v-33l-107 -53l-2 -1262l109 -53v-33h-392zM899 0v37l113 45l-561 692l555 574l-132 49v37h439v-33l-148 -53l-553 -506l627 -756l121 -53v-33h-461zM645 -410l29 312h145v-52l-141 -260h-33z" />
    <glyph glyph-name="uni0137" unicode="&#x137;" horiz-adv-x="1079" 
d="M102 0v37l101 49v1262l-94 51v35l245 10v-1358l103 -53v-33h-355zM819 0l-432 555l367 342l-156 53v33h406v-37l-119 -49l-336 -309l407 -502l93 -53v-33h-230zM524 -410l29 312h145v-52l-141 -260h-33z" />
    <glyph glyph-name="kgreenlandic" unicode="&#x138;" horiz-adv-x="1079" 
d="M102 0v37l101 49v811l-94 51v35l245 8v-905l103 -53v-33h-355zM819 0l-432 535l367 362l-156 53v33h406v-37l-119 -49l-336 -330l407 -481l93 -53v-33h-230z" />
    <glyph glyph-name="Lacute" unicode="&#x139;" horiz-adv-x="1222" 
d="M145 1579l-18 37l365 268h28l55 -127zM143 0v37l111 49v1262l-111 49v37h389v-33l-106 -53v-1260h522l125 260h37l-20 -348h-947z" />
    <glyph glyph-name="lacute" unicode="&#x13a;" horiz-adv-x="534" 
d="M59 1579l-18 37l365 268h28l55 -127zM92 0v37l101 49v1262l-95 51v35l246 10v-1358l98 -53v-33h-350z" />
    <glyph glyph-name="uni013B" unicode="&#x13b;" horiz-adv-x="1222" 
d="M143 0v37l111 49v1262l-111 49v37h389v-33l-106 -53v-1260h522l125 260h37l-20 -348h-947zM584 -410l28 312h146v-52l-142 -260h-32z" />
    <glyph glyph-name="uni013C" unicode="&#x13c;" horiz-adv-x="534" 
d="M92 0v37l101 49v1262l-95 51v35l246 10v-1358l98 -53v-33h-350zM168 -410l29 312h145v-52l-141 -260h-33z" />
    <glyph glyph-name="Lcaron" unicode="&#x13d;" horiz-adv-x="1161" 
d="M143 0v37l111 49v1262l-111 49v37h389v-33l-106 -53v-1260h522l125 260h37l-20 -348h-947zM750 1102v332h159v-52l-127 -280h-32z" />
    <glyph glyph-name="lcaron" unicode="&#x13e;" horiz-adv-x="544" 
d="M92 0v37l101 49v1262l-95 51v35l246 10v-1358l98 -53v-33h-350zM461 1102v332h160v-52l-127 -280h-33z" />
    <glyph glyph-name="Ldot" unicode="&#x13f;" horiz-adv-x="1222" 
d="M143 0v37l111 49v1262l-111 49v37h389v-33l-106 -53v-1260h522l125 260h37l-20 -348h-947zM768 645q-46 0 -78.5 32.5t-32.5 78.5t32.5 78t78.5 32t78.5 -32t32.5 -78t-32.5 -78.5t-78.5 -32.5z" />
    <glyph glyph-name="ldot" unicode="&#x140;" horiz-adv-x="737" 
d="M92 0v37l101 49v1262l-95 51v35l246 10v-1358l98 -53v-33h-350zM565 586q-46 0 -78 32t-32 78t32 78.5t78 32.5t78.5 -32.5t32.5 -78.5t-32.5 -78t-78.5 -32z" />
    <glyph glyph-name="Lslash" unicode="&#x141;" horiz-adv-x="1335" 
d="M1186 348h37l-21 -348h-946v37l111 49v483l-224 -108v88l224 108v691l-111 49v37h389v-33l-106 -53v-607l403 197v-88l-403 -197v-565h522z" />
    <glyph glyph-name="lslash" unicode="&#x142;" horiz-adv-x="716" 
d="M625 911l-219 -159v-666l98 -53v-33h-350v37l100 49v555l-162 -119v88l162 119v619l-94 51v35l246 10v-604l219 159v-88z" />
    <glyph glyph-name="Nacute" unicode="&#x143;" horiz-adv-x="1468" 
d="M573 1579l-18 37l365 268h28l56 -127zM1159 -18l-831 1323v-1219l121 -53v-33h-326v37l110 49v1262l-104 49v37h315l697 -1100v1014l-121 49v37h326v-33l-111 -53v-1366h-76z" />
    <glyph glyph-name="nacute" unicode="&#x144;" horiz-adv-x="1187" 
d="M430 1128l-18 37l364 269h29l55 -127zM102 0v37l101 49v811l-97 51v35l242 8l6 -127q40 70 120.5 113t176.5 43q159 0 252.5 -90.5t93.5 -237.5v-606l99 -53v-33h-351v37l101 49v600q0 116 -64.5 184t-171.5 68q-90 0 -158.5 -58.5t-97.5 -150.5v-643l99 -53v-33h-351z
" />
    <glyph glyph-name="uni0145" unicode="&#x145;" horiz-adv-x="1468" 
d="M1159 -18l-831 1323v-1219l121 -53v-33h-326v37l110 49v1262l-104 49v37h315l697 -1100v1014l-121 49v37h326v-33l-111 -53v-1366h-76zM670 -410l28 312h146v-52l-142 -260h-32z" />
    <glyph glyph-name="uni0146" unicode="&#x146;" horiz-adv-x="1187" 
d="M102 0v37l101 49v811l-97 51v35l242 8l6 -127q40 70 120.5 113t176.5 43q159 0 252.5 -90.5t93.5 -237.5v-606l99 -53v-33h-351v37l101 49v600q0 116 -64.5 184t-171.5 68q-90 0 -158.5 -58.5t-97.5 -150.5v-643l99 -53v-33h-351zM512 -410l29 312h145v-52l-141 -260h-33
z" />
    <glyph glyph-name="Ncaron" unicode="&#x147;" horiz-adv-x="1468" 
d="M764 1585l-272 227v72l288 -170l289 170v-72l-272 -227h-33zM1159 -18l-831 1323v-1219l121 -53v-33h-326v37l110 49v1262l-104 49v37h315l697 -1100v1014l-121 49v37h326v-33l-111 -53v-1366h-76z" />
    <glyph glyph-name="ncaron" unicode="&#x148;" horiz-adv-x="1187" 
d="M621 1135l-273 227v72l289 -170l289 170v-72l-273 -227h-32zM102 0v37l101 49v811l-97 51v35l242 8l6 -127q40 70 120.5 113t176.5 43q159 0 252.5 -90.5t93.5 -237.5v-606l99 -53v-33h-351v37l101 49v600q0 116 -64.5 184t-171.5 68q-90 0 -158.5 -58.5t-97.5 -150.5
v-643l99 -53v-33h-351z" />
    <glyph glyph-name="napostrophe" unicode="&#x149;" horiz-adv-x="1187" 
d="M-66 958l39 414h166v-51l-151 -363h-54zM102 0v37l101 49v811l-97 51v35l242 8l6 -127q40 70 120.5 113t176.5 43q159 0 252.5 -90.5t93.5 -237.5v-606l99 -53v-33h-351v37l101 49v600q0 116 -64.5 184t-171.5 68q-90 0 -158.5 -58.5t-97.5 -150.5v-643l99 -53v-33h-351z
" />
    <glyph glyph-name="Eng" unicode="&#x14a;" horiz-adv-x="1509" 
d="M1040 1434h326v-33l-111 -53v-1416q0 -191 -104 -304t-281 -113v47q119 15 181.5 102.5t62.5 233.5v188l-766 1219v-1219l121 -53v-33h-326v37l111 49v1262l-104 49v37h311l700 -1104v1018l-121 49v37z" />
    <glyph glyph-name="eng" unicode="&#x14b;" horiz-adv-x="1089" 
d="M729 -485q-22 0 -41.5 2.5t-35 7.5t-25.5 9t-22 10t-15 7l2 287h37l88 -215q25 -14 51 -14q40 0 66.5 34t23.5 93l-12 266v684q0 116 -64.5 184t-171.5 68q-90 0 -158.5 -58.5t-97.5 -150.5v-643l99 -53v-33h-351v37l101 49v811l-97 51v35l242 8l6 -127q40 70 120.5 113
t176.5 43q159 0 252.5 -90.5t93.5 -237.5v-717q0 -133 -27 -233.5t-88.5 -163.5t-152.5 -63z" />
    <glyph glyph-name="Omacron" unicode="&#x14c;" horiz-adv-x="1548" 
d="M510 1694v94h520v-94h-520zM774 -37q-196 0 -345.5 98.5t-228.5 269.5t-77 386q-2 214 77 385t228.5 269.5t345.5 98.5t345.5 -98.5t228.5 -269.5t77 -385q2 -215 -77 -386t-228.5 -269.5t-345.5 -98.5zM774 41q101 0 180.5 34.5t132.5 94.5t88 146.5t50.5 185.5
t15.5 215t-15.5 214.5t-50.5 185t-88 147t-132.5 95t-180.5 34.5t-180.5 -34.5t-132.5 -95t-88 -147t-50.5 -185t-15.5 -214.5t15.5 -215t50.5 -185.5t88 -146.5t132.5 -94.5t180.5 -34.5z" />
    <glyph glyph-name="omacron" unicode="&#x14d;" horiz-adv-x="1161" 
d="M319 1243v94h521v-94h-521zM584 -37q-141 0 -257.5 73.5t-181 196.5t-63.5 267q0 219 145.5 369.5t356.5 150.5q138 0 252 -70t178.5 -189.5t64.5 -260.5q0 -149 -66 -272.5t-179.5 -194t-249.5 -70.5zM584 35q83 0 145.5 38t99 104.5t54.5 147.5t18 175q0 124 -32 222.5
t-105.5 162t-179.5 63.5q-86 0 -150 -35.5t-100.5 -98.5t-54 -141t-17.5 -173q0 -97 17 -178t53.5 -147t100.5 -103t151 -37z" />
    <glyph glyph-name="Obreve" unicode="&#x14e;" horiz-adv-x="1548" 
d="M774 1585q-70 0 -125.5 25t-89.5 67.5t-52 95.5t-18 111h52q43 -186 233 -186q191 0 234 186h51q0 -121 -77.5 -210t-207.5 -89zM774 -37q-196 0 -345.5 98.5t-228.5 269.5t-77 386q-2 214 77 385t228.5 269.5t345.5 98.5t345.5 -98.5t228.5 -269.5t77 -385
q2 -215 -77 -386t-228.5 -269.5t-345.5 -98.5zM774 41q101 0 180.5 34.5t132.5 94.5t88 146.5t50.5 185.5t15.5 215t-15.5 214.5t-50.5 185t-88 147t-132.5 95t-180.5 34.5t-180.5 -34.5t-132.5 -95t-88 -147t-50.5 -185t-15.5 -214.5t15.5 -215t50.5 -185.5t88 -146.5
t132.5 -94.5t180.5 -34.5z" />
    <glyph glyph-name="obreve" unicode="&#x14f;" horiz-adv-x="1161" 
d="M584 1135q-70 0 -125.5 25t-89.5 67.5t-52 95.5t-18 111h51q20 -87 78 -137t156 -50q190 0 233 187h51q0 -121 -77 -210t-207 -89zM584 -37q-141 0 -257.5 73.5t-181 196.5t-63.5 267q0 219 145.5 369.5t356.5 150.5q138 0 252 -70t178.5 -189.5t64.5 -260.5
q0 -149 -66 -272.5t-179.5 -194t-249.5 -70.5zM584 35q83 0 145.5 38t99 104.5t54.5 147.5t18 175q0 124 -32 222.5t-105.5 162t-179.5 63.5q-86 0 -150 -35.5t-100.5 -98.5t-54 -141t-17.5 -173q0 -97 17 -178t53.5 -147t100.5 -103t151 -37z" />
    <glyph glyph-name="Ohungarumlaut" unicode="&#x150;" horiz-adv-x="1548" 
d="M569 1579l-30 43l237 262h29l76 -106zM838 1579l-31 43l237 262h29l76 -106zM774 -37q-196 0 -345.5 98.5t-228.5 269.5t-77 386q-2 214 77 385t228.5 269.5t345.5 98.5t345.5 -98.5t228.5 -269.5t77 -385q2 -215 -77 -386t-228.5 -269.5t-345.5 -98.5zM774 41
q101 0 180.5 34.5t132.5 94.5t88 146.5t50.5 185.5t15.5 215t-15.5 214.5t-50.5 185t-88 147t-132.5 95t-180.5 34.5t-180.5 -34.5t-132.5 -95t-88 -147t-50.5 -185t-15.5 -214.5t15.5 -215t50.5 -185.5t88 -146.5t132.5 -94.5t180.5 -34.5z" />
    <glyph glyph-name="ohungarumlaut" unicode="&#x151;" horiz-adv-x="1161" 
d="M379 1128l-31 43l238 263h28l76 -107zM647 1128l-31 43l238 263h29l75 -107zM584 -37q-141 0 -257.5 73.5t-181 196.5t-63.5 267q0 219 145.5 369.5t356.5 150.5q138 0 252 -70t178.5 -189.5t64.5 -260.5q0 -149 -66 -272.5t-179.5 -194t-249.5 -70.5zM584 35
q83 0 145.5 38t99 104.5t54.5 147.5t18 175q0 124 -32 222.5t-105.5 162t-179.5 63.5q-86 0 -150 -35.5t-100.5 -98.5t-54 -141t-17.5 -173q0 -97 17 -178t53.5 -147t100.5 -103t151 -37z" />
    <glyph glyph-name="OE" unicode="&#x152;" horiz-adv-x="2105" 
d="M2003 348l-21 -348h-1038q-101 -37 -221 -37q-196 0 -345.5 98.5t-228.5 269.5t-77 386q-2 214 77 385t228.5 269.5t345.5 98.5q123 0 221 -36h963l30 -330h-36l-136 246h-665q119 -90 189.5 -232.5t82.5 -318.5l357 4v-107l-355 9q0 -197 -70 -357.5t-198 -259.5h735
l125 260h37zM258 717q-2 -146 23 -265.5t78.5 -213t146 -145.5t217.5 -52q101 0 180.5 34.5t132.5 94.5t87.5 146.5t49 185.5t13.5 215q1 116 -13.5 214.5t-49 185t-87.5 147t-132.5 95t-180.5 34.5t-180.5 -34.5t-133 -95t-88.5 -146.5t-49.5 -185t-13.5 -215z" />
    <glyph glyph-name="oe" unicode="&#x153;" horiz-adv-x="1906" 
d="M584 -37q-141 0 -257.5 73.5t-181 196.5t-63.5 267q0 219 145.5 369.5t356.5 150.5q125 0 231 -59t174 -160q67 102 175 160.5t235 58.5q147 0 247 -65.5t142.5 -173t36.5 -246.5l-746 -3q0 -226 104 -352.5t275 -126.5q84 0 168 38.5t137 92.5l49 -51
q-77 -81 -167.5 -125.5t-225.5 -44.5q-136 0 -247.5 58.5t-180.5 168.5q-69 -106 -175 -166.5t-232 -60.5zM1087 612h570q-5 153 -71 245.5t-200 92.5q-116 0 -200.5 -96.5t-98.5 -241.5zM584 35q83 0 145.5 38t99 104.5t54.5 147.5t18 175q0 124 -32 222.5t-105.5 162
t-179.5 63.5q-86 0 -150 -35.5t-100.5 -98.5t-54 -141t-17.5 -173q0 -97 17 -178t53.5 -147t100.5 -103t151 -37z" />
    <glyph glyph-name="Racute" unicode="&#x154;" horiz-adv-x="1406" 
d="M451 1579l-19 37l365 268h28l56 -127zM143 0v37l111 49v1262l-111 49v37h596q190 0 311 -113.5t121 -292.5q0 -76 -31.5 -146.5t-88 -125.5t-143.5 -88t-191 -33q79 -22 138.5 -73.5t119.5 -137.5l192 -281q36 -52 73 -75.5t106 -30.5v-37h-293l-301 463q-55 84 -122 125
t-157 41h-53v-537l127 -59v-33h-404zM420 705h274q74 0 133.5 29.5t94.5 77.5t53 103.5t18 112.5q0 150 -74.5 236t-224.5 86h-274v-645z" />
    <glyph glyph-name="racute" unicode="&#x155;" horiz-adv-x="819" 
d="M274 1128l-18 37l365 269h28l56 -127zM102 0v37l101 49v809l-94 53v35l243 8v-235q38 115 118 189.5t187 74.5q71 0 111 -31l-43 -168q-69 53 -141 53q-155 0 -232 -253v-527l125 -61v-33h-375z" />
    <glyph glyph-name="uni0156" unicode="&#x156;" horiz-adv-x="1406" 
d="M143 0v37l111 49v1262l-111 49v37h596q190 0 311 -113.5t121 -292.5q0 -76 -31.5 -146.5t-88 -125.5t-143.5 -88t-191 -33q79 -22 138.5 -73.5t119.5 -137.5l192 -281q36 -52 73 -75.5t106 -30.5v-37h-293l-301 463q-55 84 -122 125t-157 41h-53v-537l127 -59v-33h-404z
M420 705h274q74 0 133.5 29.5t94.5 77.5t53 103.5t18 112.5q0 150 -74.5 236t-224.5 86h-274v-645zM684 -410l29 312h145v-52l-141 -260h-33z" />
    <glyph glyph-name="uni0157" unicode="&#x157;" horiz-adv-x="819" 
d="M102 0v37l101 49v809l-94 53v35l243 8v-235q38 115 118 189.5t187 74.5q71 0 111 -31l-43 -168q-69 53 -141 53q-155 0 -232 -253v-527l125 -61v-33h-375zM219 -410l29 312h145v-52l-141 -260h-33z" />
    <glyph glyph-name="Rcaron" unicode="&#x158;" horiz-adv-x="1406" 
d="M641 1585l-272 227v72l288 -170l289 170v-72l-272 -227h-33zM143 0v37l111 49v1262l-111 49v37h596q190 0 311 -113.5t121 -292.5q0 -76 -31.5 -146.5t-88 -125.5t-143.5 -88t-191 -33q79 -22 138.5 -73.5t119.5 -137.5l192 -281q36 -52 73 -75.5t106 -30.5v-37h-293
l-301 463q-55 84 -122 125t-157 41h-53v-537l127 -59v-33h-404zM420 705h274q74 0 133.5 29.5t94.5 77.5t53 103.5t18 112.5q0 150 -74.5 236t-224.5 86h-274v-645z" />
    <glyph glyph-name="rcaron" unicode="&#x159;" horiz-adv-x="819" 
d="M465 1135l-272 227v72l288 -170l289 170v-72l-272 -227h-33zM102 0v37l101 49v809l-94 53v35l243 8v-235q38 115 118 189.5t187 74.5q71 0 111 -31l-43 -168q-69 53 -141 53q-155 0 -232 -253v-527l125 -61v-33h-375z" />
    <glyph glyph-name="Sacute" unicode="&#x15a;" horiz-adv-x="1122" 
d="M365 1579l-19 37l365 268h28l56 -127zM504 -37q-88 0 -172 13t-130 26t-110 35l2 346h37l105 -238q122 -102 268 -102q145 0 236 78t91 217q0 58 -19 107.5t-49 85.5t-79.5 70.5t-97 58.5t-115.5 53q-74 32 -129 66t-103 80.5t-73 108.5t-25 138q0 162 123 263t309 101
q160 0 332 -61l-6 -328h-37l-104 242q-99 72 -217 72q-110 0 -180 -65.5t-70 -170.5q0 -47 12.5 -83.5t33 -64t62 -55t84 -48.5t115.5 -52q208 -94 304.5 -201.5t96.5 -271.5q0 -185 -133 -302.5t-362 -117.5z" />
    <glyph glyph-name="sacute" unicode="&#x15b;" horiz-adv-x="940" 
d="M285 1128l-19 37l365 269h28l56 -127zM422 -37q-150 0 -320 80l4 283h35l88 -213q82 -82 205 -82q110 0 177 52.5t67 129.5q0 85 -53.5 131t-200.5 94q-295 98 -295 295q0 135 102.5 211t270.5 76q141 0 282 -49v-283h-36l-91 219q-86 47 -176 47q-82 0 -140 -42
t-58 -124q0 -72 63 -122t205 -93q145 -44 214.5 -108.5t72.5 -179.5q0 -147 -109.5 -234.5t-306.5 -87.5z" />
    <glyph glyph-name="Scircumflex" unicode="&#x15c;" horiz-adv-x="1122" 
d="M279 1585v72l272 227h33l272 -227v-72l-289 170zM504 -37q-88 0 -172 13t-130 26t-110 35l2 346h37l105 -238q122 -102 268 -102q145 0 236 78t91 217q0 58 -19 107.5t-49 85.5t-79.5 70.5t-97 58.5t-115.5 53q-74 32 -129 66t-103 80.5t-73 108.5t-25 138q0 162 123 263
t309 101q160 0 332 -61l-6 -328h-37l-104 242q-99 72 -217 72q-110 0 -180 -65.5t-70 -170.5q0 -47 12.5 -83.5t33 -64t62 -55t84 -48.5t115.5 -52q208 -94 304.5 -201.5t96.5 -271.5q0 -185 -133 -302.5t-362 -117.5z" />
    <glyph glyph-name="scircumflex" unicode="&#x15d;" horiz-adv-x="940" 
d="M199 1135v71l272 228h33l272 -228v-71l-289 170zM422 -37q-150 0 -320 80l4 283h35l88 -213q82 -82 205 -82q110 0 177 52.5t67 129.5q0 85 -53.5 131t-200.5 94q-295 98 -295 295q0 135 102.5 211t270.5 76q141 0 282 -49v-283h-36l-91 219q-86 47 -176 47
q-82 0 -140 -42t-58 -124q0 -72 63 -122t205 -93q145 -44 214.5 -108.5t72.5 -179.5q0 -147 -109.5 -234.5t-306.5 -87.5z" />
    <glyph glyph-name="Scedilla" unicode="&#x15e;" horiz-adv-x="1122" 
d="M999 383q0 -182 -130 -299.5t-353 -120.5l-41 -67q18 6 47 6q73 0 128 -47.5t55 -120.5q0 -76 -57 -123t-148 -47q-61 0 -109.5 25t-77.5 67l39 31q54 -72 140 -72q62 0 92 33.5t30 79.5q0 51 -34.5 84.5t-94.5 33.5q-37 0 -73 -20l-39 43l51 96q-159 11 -332 72l2 346
h37l105 -238q122 -102 268 -102q145 0 236 78t91 217q0 58 -19 107.5t-49 85.5t-79.5 70.5t-97 58.5t-115.5 53q-74 32 -129 66t-103 80.5t-73 108.5t-25 138q0 162 123 263t309 101q160 0 332 -61l-6 -328h-37l-104 242q-99 72 -217 72q-110 0 -180 -65.5t-70 -170.5
q0 -47 12.5 -83.5t33 -64t62 -55t84 -48.5t115.5 -52q208 -94 304.5 -201.5t96.5 -271.5z" />
    <glyph glyph-name="scedilla" unicode="&#x15f;" horiz-adv-x="940" 
d="M838 285q0 -141 -101.5 -228t-285.5 -94l-41 -67q18 6 47 6q73 0 127.5 -47.5t54.5 -120.5q0 -76 -57 -123t-148 -47q-61 0 -109 25t-77 67l39 31q54 -72 139 -72q62 0 92.5 33.5t30.5 79.5q0 51 -34.5 84.5t-94.5 33.5q-38 0 -74 -20l-39 43l51 98q-128 15 -256 76
l4 283h35l88 -213q82 -82 205 -82q110 0 177 52.5t67 129.5q0 85 -53.5 131t-200.5 94q-295 98 -295 295q0 135 102.5 211t270.5 76q141 0 282 -49v-283h-36l-91 219q-86 47 -176 47q-82 0 -140 -42t-58 -124q0 -72 63 -122t205 -93q145 -44 214.5 -108.5t72.5 -179.5z" />
    <glyph glyph-name="Scaron" unicode="&#x160;" horiz-adv-x="1122" 
d="M555 1585l-272 227v72l288 -170l289 170v-72l-272 -227h-33zM504 -37q-88 0 -172 13t-130 26t-110 35l2 346h37l105 -238q122 -102 268 -102q145 0 236 78t91 217q0 58 -19 107.5t-49 85.5t-79.5 70.5t-97 58.5t-115.5 53q-74 32 -129 66t-103 80.5t-73 108.5t-25 138
q0 162 123 263t309 101q160 0 332 -61l-6 -328h-37l-104 242q-99 72 -217 72q-110 0 -180 -65.5t-70 -170.5q0 -47 12.5 -83.5t33 -64t62 -55t84 -48.5t115.5 -52q208 -94 304.5 -201.5t96.5 -271.5q0 -185 -133 -302.5t-362 -117.5z" />
    <glyph glyph-name="scaron" unicode="&#x161;" horiz-adv-x="940" 
d="M475 1135l-272 227v72l289 -170l288 170v-72l-272 -227h-33zM422 -37q-150 0 -320 80l4 283h35l88 -213q82 -82 205 -82q110 0 177 52.5t67 129.5q0 85 -53.5 131t-200.5 94q-295 98 -295 295q0 135 102.5 211t270.5 76q141 0 282 -49v-283h-36l-91 219q-86 47 -176 47
q-82 0 -140 -42t-58 -124q0 -72 63 -122t205 -93q145 -44 214.5 -108.5t72.5 -179.5q0 -147 -109.5 -234.5t-306.5 -87.5z" />
    <glyph glyph-name="uni0162" unicode="&#x162;" horiz-adv-x="1359" 
d="M113 1434h1134l-2 -332h-37l-116 250h-326v-1266l127 -53v-33h-199l-63 -104q18 6 47 6q73 0 127.5 -47.5t54.5 -120.5q0 -76 -57 -123t-148 -47q-61 0 -109 25t-77 67l39 31q54 -72 139 -72q62 0 92.5 33.5t30.5 79.5q0 51 -34.5 84.5t-94.5 33.5q-38 0 -74 -20l-39 43
l68 131h-133v37l131 49l-2 1266h-324l-118 -250h-37v332z" />
    <glyph glyph-name="uni0163" unicode="&#x163;" horiz-adv-x="681" 
d="M416 -98q73 0 127.5 -47.5t54.5 -120.5q0 -76 -57 -123t-148 -47q-61 0 -109 25t-77 67l39 31q54 -72 139 -72q62 0 92.5 33.5t30.5 79.5q0 51 -34.5 84.5t-94.5 33.5q-38 0 -74 -20l-39 43l60 113q-111 48 -111 217v692h-133v65l141 27v268l142 29v-297h196v-92h-194
v-711q0 -52 26 -85.5t68 -33.5q54 0 102 31l37 -63q-74 -66 -176 -66h-14l-41 -67q18 6 47 6z" />
    <glyph glyph-name="Tcaron" unicode="&#x164;" horiz-adv-x="1359" 
d="M666 1585l-273 227v72l289 -170l289 170v-72l-273 -227h-32zM463 0v37l131 49l-2 1266h-324l-118 -250h-37v332h1134l-2 -332h-37l-116 250h-326v-1266l127 -53v-33h-430z" />
    <glyph glyph-name="tcaron" unicode="&#x165;" horiz-adv-x="681" 
d="M473 1085v332h160v-51l-127 -281h-33zM424 -37q-209 0 -209 236v692h-133v65l141 27v268l142 29v-297h196v-92h-194v-711q0 -52 26 -85.5t68 -33.5q54 0 102 31l37 -63q-74 -66 -176 -66z" />
    <glyph glyph-name="Tbar" unicode="&#x166;" horiz-adv-x="1359" 
d="M113 1434h1134l-2 -332h-37l-116 250h-326v-570h272v-88h-272v-608l127 -53v-33h-430v37l131 49v608h-272v88h270v570h-324l-118 -250h-37v332z" />
    <glyph glyph-name="tbar" unicode="&#x167;" horiz-adv-x="661" 
d="M563 92l37 -63q-74 -66 -176 -66q-209 0 -209 236v409h-135v78h135v205h-133v65l141 27v268l142 29v-297h196v-92h-194v-205h157v-78h-157v-428q0 -52 26 -85.5t68 -33.5q54 0 102 31z" />
    <glyph glyph-name="Utilde" unicode="&#x168;" horiz-adv-x="1495" 
d="M526 1671l-26 35q89 141 190 141q47 0 118 -26.5t107 -26.5q39 0 64.5 11.5t58.5 41.5l31 -24q-43 -72 -82 -104.5t-100 -32.5q-51 0 -118.5 28.5t-106.5 28.5q-68 0 -136 -72zM756 -37q-244 0 -383.5 126t-139.5 366v893l-110 49v37h389v-33l-106 -53v-908
q0 -185 90.5 -289t267.5 -104q192 0 296.5 104t104.5 289v908l-110 49v37h317v-33l-106 -53v-893q0 -233 -138.5 -362.5t-371.5 -129.5z" />
    <glyph glyph-name="utilde" unicode="&#x169;" horiz-adv-x="1200" 
d="M344 1221l-27 34q90 142 191 142q47 0 118 -27t107 -27q39 0 64.5 12t58.5 42l31 -25q-43 -72 -82 -104.5t-100 -32.5q-51 0 -119 28.5t-107 28.5q-68 0 -135 -71zM557 -37q-168 0 -264 90.5t-96 237.5v604l-95 51v37l246 8v-694q0 -117 67 -184.5t183 -67.5
q152 0 262 143v707l-94 51v37l246 8v-915l96 -35v-35l-238 -8v108q-122 -143 -313 -143z" />
    <glyph glyph-name="Umacron" unicode="&#x16a;" horiz-adv-x="1495" 
d="M516 1694v94h520v-94h-520zM756 -37q-244 0 -383.5 126t-139.5 366v893l-110 49v37h389v-33l-106 -53v-908q0 -185 90.5 -289t267.5 -104q192 0 296.5 104t104.5 289v908l-110 49v37h317v-33l-106 -53v-893q0 -233 -138.5 -362.5t-371.5 -129.5z" />
    <glyph glyph-name="umacron" unicode="&#x16b;" horiz-adv-x="1200" 
d="M334 1243v94h520v-94h-520zM557 -37q-168 0 -264 90.5t-96 237.5v604l-95 51v37l246 8v-694q0 -117 67 -184.5t183 -67.5q152 0 262 143v707l-94 51v37l246 8v-915l96 -35v-35l-238 -8v108q-122 -143 -313 -143z" />
    <glyph glyph-name="Ubreve" unicode="&#x16c;" horiz-adv-x="1495" 
d="M780 1585q-92 0 -158.5 44t-96 110t-29.5 145h51q43 -186 233 -186q191 0 234 186h51q0 -121 -77.5 -210t-207.5 -89zM756 -37q-244 0 -383.5 126t-139.5 366v893l-110 49v37h389v-33l-106 -53v-908q0 -185 90.5 -289t267.5 -104q192 0 296.5 104t104.5 289v908l-110 49
v37h317v-33l-106 -53v-893q0 -233 -138.5 -362.5t-371.5 -129.5z" />
    <glyph glyph-name="ubreve" unicode="&#x16d;" horiz-adv-x="1200" 
d="M598 1135q-70 0 -125.5 25t-89.5 67.5t-52 95.5t-18 111h52q20 -87 77.5 -137t155.5 -50q190 0 233 187h52q0 -121 -77.5 -210t-207.5 -89zM557 -37q-168 0 -264 90.5t-96 237.5v604l-95 51v37l246 8v-694q0 -117 67 -184.5t183 -67.5q152 0 262 143v707l-94 51v37l246 8
v-915l96 -35v-35l-238 -8v108q-122 -143 -313 -143z" />
    <glyph glyph-name="Uring" unicode="&#x16e;" horiz-adv-x="1495" 
d="M780 1575q-77 0 -126.5 49t-49.5 125q0 75 50.5 124.5t125.5 49.5q77 0 126.5 -49t49.5 -125q0 -75 -50.5 -124.5t-125.5 -49.5zM780 1636q47 0 78 32t31 81t-31 81t-78 32t-77.5 -32t-30.5 -81t30.5 -81t77.5 -32zM756 -37q-244 0 -383.5 126t-139.5 366v893l-110 49v37
h389v-33l-106 -53v-908q0 -185 90.5 -289t267.5 -104q192 0 296.5 104t104.5 289v908l-110 49v37h317v-33l-106 -53v-893q0 -233 -138.5 -362.5t-371.5 -129.5z" />
    <glyph glyph-name="uring" unicode="&#x16f;" horiz-adv-x="1200" 
d="M598 1124q-77 0 -126.5 49t-49.5 125q0 75 50.5 125t125.5 50q77 0 126.5 -49.5t49.5 -125.5q0 -75 -50.5 -124.5t-125.5 -49.5zM598 1186q47 0 78 31.5t31 80.5t-31 81t-78 32t-78 -32t-31 -81t31 -80.5t78 -31.5zM557 -37q-168 0 -264 90.5t-96 237.5v604l-95 51v37
l246 8v-694q0 -117 67 -184.5t183 -67.5q152 0 262 143v707l-94 51v37l246 8v-915l96 -35v-35l-238 -8v108q-122 -143 -313 -143z" />
    <glyph glyph-name="Uhungarumlaut" unicode="&#x170;" horiz-adv-x="1495" 
d="M575 1579l-30 43l237 262h29l76 -106zM844 1579l-31 43l238 262h28l76 -106zM756 -37q-244 0 -383.5 126t-139.5 366v893l-110 49v37h389v-33l-106 -53v-908q0 -185 90.5 -289t267.5 -104q192 0 296.5 104t104.5 289v908l-110 49v37h317v-33l-106 -53v-893
q0 -233 -138.5 -362.5t-371.5 -129.5z" />
    <glyph glyph-name="uhungarumlaut" unicode="&#x171;" horiz-adv-x="1200" 
d="M393 1128l-31 43l238 263h29l76 -107zM662 1128l-31 43l237 263h29l76 -107zM557 -37q-168 0 -264 90.5t-96 237.5v604l-95 51v37l246 8v-694q0 -117 67 -184.5t183 -67.5q152 0 262 143v707l-94 51v37l246 8v-915l96 -35v-35l-238 -8v108q-122 -143 -313 -143z" />
    <glyph glyph-name="Uogonek" unicode="&#x172;" horiz-adv-x="1495" 
d="M1055 1434h317v-33l-106 -53v-893q0 -195 -99.5 -319.5t-273.5 -160.5q-123 -155 -123 -254q0 -48 28.5 -73t71.5 -25q38 0 84 12l17 -51q-54 -22 -123 -22q-96 0 -158.5 35.5t-62.5 113.5q0 61 45 122.5t127 131.5q-14 -2 -43 -2q-244 0 -383.5 126t-139.5 366v893
l-110 49v37h389v-33l-106 -53v-908q0 -185 90.5 -289t267.5 -104q192 0 296.5 104t104.5 289v908l-110 49v37z" />
    <glyph glyph-name="uogonek" unicode="&#x173;" horiz-adv-x="1200" 
d="M1108 6l-55 -2q-64 -75 -105 -152t-41 -131q0 -48 29 -73t72 -25q38 0 84 12l16 -51q-54 -22 -123 -22q-96 0 -158.5 35.5t-62.5 113.5q0 70 56.5 139t160.5 152l-111 -4v108q-122 -143 -313 -143q-168 0 -264 90.5t-96 237.5v604l-95 51v37l246 8v-694q0 -117 67 -184.5
t183 -67.5q152 0 262 143v707l-94 51v37l246 8v-915l96 -35v-35z" />
    <glyph glyph-name="Wcircumflex" unicode="&#x174;" horiz-adv-x="1961" 
d="M664 1585v72l272 227h33l272 -227v-72l-289 170zM631 -16l-51 2l-430 1362l-89 49v37h398v-33l-129 -53l319 -1043l273 795l-82 248l-95 49v37h381v-33l-106 -53l321 -1067l353 1067l-135 53v33h342v-37l-97 -49l-471 -1364h-63l-309 977z" />
    <glyph glyph-name="wcircumflex" unicode="&#x175;" horiz-adv-x="1568" 
d="M528 1135v71l273 228h33l272 -228v-71l-289 170zM453 -6l-322 903l-100 49v37h364v-33l-102 -53l229 -645l266 731h62v2l260 -741l240 653l-119 53v33h307v-37l-98 -49l-332 -903h-72l-254 719l-262 -719h-67z" />
    <glyph glyph-name="Ycircumflex" unicode="&#x176;" horiz-adv-x="1359" 
d="M426 1585v72l272 227h33l273 -227v-72l-289 170zM485 0v37l111 49v516l-446 746l-89 49v37h402v-33l-121 -53l391 -648l367 648l-150 53v33h348v-37l-84 -49l-446 -740v-522l117 -53v-33h-400z" />
    <glyph glyph-name="ycircumflex" unicode="&#x177;" horiz-adv-x="1130" 
d="M293 1135v71l272 228h33l272 -228v-71l-288 170zM166 -451v37l160 60l182 389l-377 862l-100 49v37h385v-33l-103 -53l285 -676l305 676l-119 53v33h316v-37l-99 -49l-571 -1251l143 -64v-33h-407z" />
    <glyph glyph-name="Ydieresis" unicode="&#x178;" horiz-adv-x="1359" 
d="M553 1640q-43 0 -73.5 31t-30.5 74t30.5 73.5t73.5 30.5q41 0 71.5 -30.5t30.5 -73.5t-30.5 -74t-71.5 -31zM883 1640q-43 0 -74 31t-31 74t31 73.5t74 30.5q41 0 71.5 -30.5t30.5 -73.5t-30.5 -74t-71.5 -31zM485 0v37l111 49v516l-446 746l-89 49v37h402v-33l-121 -53
l391 -648l367 648l-150 53v33h348v-37l-84 -49l-446 -740v-522l117 -53v-33h-400z" />
    <glyph glyph-name="Zacute" unicode="&#x179;" horiz-adv-x="1261" 
d="M451 1579l-19 37l365 268h28l56 -127zM92 0v72l850 1280h-608l-129 -250h-37v332h960v-101l-823 -1249l660 2l137 266h37v-352h-1047z" />
    <glyph glyph-name="zacute" unicode="&#x17a;" horiz-adv-x="1013" 
d="M293 1128l-19 37l365 269h29l55 -127zM82 0v76l623 831h-418l-127 -178h-33v254h741v-98l-612 -809h469l109 178h36v-254h-788z" />
    <glyph glyph-name="Zdotaccent" unicode="&#x17b;" horiz-adv-x="1261" 
d="M657 1645q-44 0 -76 32t-32 76t32 76.5t76 32.5q43 0 75 -32.5t32 -76.5t-32 -76t-75 -32zM92 0v72l850 1280h-608l-129 -250h-37v332h960v-101l-823 -1249l660 2l137 266h37v-352h-1047z" />
    <glyph glyph-name="zdotaccent" unicode="&#x17c;" horiz-adv-x="1013" 
d="M500 1194q-44 0 -76.5 32.5t-32.5 76.5t32.5 76t76.5 32q43 0 74.5 -32t31.5 -76t-31.5 -76.5t-74.5 -32.5zM82 0v76l623 831h-418l-127 -178h-33v254h741v-98l-612 -809h469l109 178h36v-254h-788z" />
    <glyph glyph-name="Zcaron" unicode="&#x17d;" horiz-adv-x="1261" 
d="M641 1585l-272 227v72l288 -170l289 170v-72l-272 -227h-33zM92 0v72l850 1280h-608l-129 -250h-37v332h960v-101l-823 -1249l660 2l137 266h37v-352h-1047z" />
    <glyph glyph-name="zcaron" unicode="&#x17e;" horiz-adv-x="1013" 
d="M483 1135l-272 227v72l289 -170l288 170v-72l-272 -227h-33zM82 0v76l623 831h-418l-127 -178h-33v254h741v-98l-612 -809h469l109 178h36v-254h-788z" />
    <glyph glyph-name="uni01CD" unicode="&#x1cd;" horiz-adv-x="1449" 
d="M702 1585h-32l-273 227v72l289 -170l289 170v-72zM1292 86l97 -53v-33h-418v33l131 53l-146 360h-536l-129 -360l143 -53v-33h-373v33l121 53l445 1178l-70 170h174zM453 535h467l-248 612z" />
    <glyph glyph-name="uni01CE" unicode="&#x1ce;" horiz-adv-x="1062" 
d="M504 1135l-273 227v72l289 -170l289 170v-72l-272 -227h-33zM424 -37q-157 0 -244.5 76.5t-87.5 212.5q0 90 54.5 163t145.5 119t204 70.5t235 24.5q0 138 -70.5 214.5t-195.5 76.5q-88 0 -156.5 -41.5t-111.5 -112.5l-68 45q114 209 354 209q187 0 293.5 -111.5
t106.5 -308.5v-514l98 -53v-33h-233l-11 141q-37 -72 -116.5 -125t-196.5 -53zM459 45q109 0 190.5 89.5t81.5 203.5v225q-110 -9 -192 -28t-148 -53.5t-100.5 -90.5t-34.5 -133q0 -98 55 -155.5t148 -57.5z" />
    <glyph glyph-name="uni01CF" unicode="&#x1cf;" horiz-adv-x="675" 
d="M324 1585l-273 227v72l289 -170l289 170v-72l-273 -227h-32zM143 0v37l111 49v1262l-111 49v37h389v-33l-106 -53v-1262l106 -53v-33h-389z" />
    <glyph glyph-name="uni01D0" unicode="&#x1d0;" horiz-adv-x="544" 
d="M283 1264l288 170v-72l-272 -227h-33l-272 227v72zM354 86l99 -53v-33h-351v37l101 49v809l-94 51v35l245 10v-905z" />
    <glyph glyph-name="uni01D2" unicode="&#x1d2;" horiz-adv-x="1161" 
d="M567 1135l-272 227v72l289 -170l288 170v-72l-272 -227h-33zM584 -37q-141 0 -257.5 73.5t-181 196.5t-63.5 267q0 219 145.5 369.5t356.5 150.5q138 0 252 -70t178.5 -189.5t64.5 -260.5q0 -149 -66 -272.5t-179.5 -194t-249.5 -70.5zM584 35q83 0 145.5 38t99 104.5
t54.5 147.5t18 175q0 124 -32 222.5t-105.5 162t-179.5 63.5q-86 0 -150 -35.5t-100.5 -98.5t-54 -141t-17.5 -173q0 -97 17 -178t53.5 -147t100.5 -103t151 -37z" />
    <glyph glyph-name="Gcaron" unicode="&#x1e6;" horiz-adv-x="1542" 
d="M819 1585l-272 227v72l289 -170l288 170v-72l-272 -227h-33zM807 -37q-212 0 -368 95t-236 264.5t-80 394.5q0 172 56.5 315t155.5 238t233.5 147.5t289.5 52.5q217 0 432 -61l-6 -328h-37l-125 236q-130 74 -282 74q-168 0 -289 -89t-180.5 -239.5t-59.5 -345.5
q0 -112 18.5 -210.5t58 -183.5t98 -146t143 -95.5t188.5 -34.5q92 0 181.5 30.5t152.5 78.5v465l-211 59v37h490v-33l-107 -53v-535q-205 -133 -516 -133z" />
    <glyph glyph-name="gcaron" unicode="&#x1e7;" horiz-adv-x="1187" 
d="M612 1135h-32l-273 227v72l289 -170l289 170v-72zM1085 1020v-119h-211q93 -96 93 -242q0 -112 -55.5 -195t-144.5 -124t-196 -41q-135 0 -239 66q-52 -24 -87.5 -65.5t-35.5 -90.5q0 -60 52.5 -83.5t168.5 -23.5h313q158 0 241 -54t83 -185q0 -104 -68.5 -184.5
t-178.5 -122t-240 -41.5q-178 0 -277.5 63t-99.5 184q0 65 30 127l156 33l4 -14q-43 -77 -43 -146q0 -79 63 -132.5t187 -53.5q81 0 158 30.5t129.5 92t52.5 137.5q0 56 -43.5 86.5t-126.5 30.5h-354q-161 0 -237.5 59t-76.5 164q0 78 47.5 137.5t122.5 98.5q-96 99 -96 247
q0 112 55 195.5t144 124.5t196 41q117 0 211 -49l287 49h16zM571 360q112 0 172 84t60 215t-60 215t-172 84t-171.5 -84t-59.5 -215t59.5 -215t171.5 -84z" />
    <glyph glyph-name="uni0218" unicode="&#x218;" horiz-adv-x="1122" 
d="M504 -37q-88 0 -172 13t-130 26t-110 35l2 346h37l105 -238q122 -102 268 -102q145 0 236 78t91 217q0 58 -19 107.5t-49 85.5t-79.5 70.5t-97 58.5t-115.5 53q-74 32 -129 66t-103 80.5t-73 108.5t-25 138q0 162 123 263t309 101q160 0 332 -61l-6 -328h-37l-104 242
q-99 72 -217 72q-110 0 -180 -65.5t-70 -170.5q0 -47 12.5 -83.5t33 -64t62 -55t84 -48.5t115.5 -52q208 -94 304.5 -201.5t96.5 -271.5q0 -185 -133 -302.5t-362 -117.5zM436 -410l29 312h145v-52l-141 -260h-33z" />
    <glyph glyph-name="uni0219" unicode="&#x219;" horiz-adv-x="940" 
d="M422 -37q-150 0 -320 80l4 283h35l88 -213q82 -82 205 -82q110 0 177 52.5t67 129.5q0 85 -53.5 131t-200.5 94q-295 98 -295 295q0 135 102.5 211t270.5 76q141 0 282 -49v-283h-36l-91 219q-86 47 -176 47q-82 0 -140 -42t-58 -124q0 -72 63 -122t205 -93
q145 -44 214.5 -108.5t72.5 -179.5q0 -147 -109.5 -234.5t-306.5 -87.5zM371 -410l28 312h146v-52l-142 -260h-32z" />
    <glyph glyph-name="uni021A" unicode="&#x21a;" horiz-adv-x="1359" 
d="M463 0v37l131 49l-2 1266h-324l-118 -250h-37v332h1134l-2 -332h-37l-116 250h-326v-1266l127 -53v-33h-430zM592 -410l29 312h145v-52l-141 -260h-33z" />
    <glyph glyph-name="uni021B" unicode="&#x21b;" horiz-adv-x="681" 
d="M424 -37q-209 0 -209 236v692h-133v65l141 27v268l142 29v-297h196v-92h-194v-711q0 -52 26 -85.5t68 -33.5q54 0 102 31l37 -63q-74 -66 -176 -66zM330 -410l28 312h146v-52l-142 -260h-32z" />
    <glyph glyph-name="uni0237" unicode="&#x237;" horiz-adv-x="583" 
d="M139 -485q-22 0 -41.5 2.5t-35 7.5t-25.5 9t-22 10t-15 7l2 287h37l88 -215q25 -14 51 -14q40 0 66.5 34t23.5 93l-14 266l-2 893l-115 51v35l271 10v-1016q0 -98 -16 -180t-48 -145.5t-84 -99t-121 -35.5z" />
    <glyph glyph-name="circumflex" unicode="&#x2c6;" horiz-adv-x="782" 
d="M102 1171v72l273 227h33l272 -227v-72l-289 170z" />
    <glyph glyph-name="caron" unicode="&#x2c7;" horiz-adv-x="782" 
d="M375 1171l-273 228v71l289 -170l289 170v-71l-272 -228h-33z" />
    <glyph glyph-name="breve" unicode="&#x2d8;" horiz-adv-x="774" 
d="M387 1171q-70 0 -125.5 25t-89.5 67.5t-52 95.5t-18 111h52q43 -186 233 -186q191 0 234 186h51q0 -121 -77.5 -210t-207.5 -89z" />
    <glyph glyph-name="dotaccent" unicode="&#x2d9;" horiz-adv-x="419" 
d="M211 1231q-44 0 -76.5 32t-32.5 76t32.5 76.5t76.5 32.5q43 0 74.5 -32.5t31.5 -76.5t-31.5 -76t-74.5 -32z" />
    <glyph glyph-name="ring" unicode="&#x2da;" horiz-adv-x="557" 
d="M252 1161q-77 0 -126.5 49t-49.5 125q0 75 50.5 124.5t125.5 49.5q77 0 126.5 -49t49.5 -125q0 -75 -50.5 -124.5t-125.5 -49.5zM252 1223q47 0 77.5 31.5t30.5 80.5t-30.5 81t-77.5 32t-78 -32t-31 -81t31 -80.5t78 -31.5z" />
    <glyph glyph-name="ogonek" unicode="&#x2db;" horiz-adv-x="548" 
d="M324 -438q-62 0 -109.5 13.5t-80 48t-32.5 87.5q0 71 59.5 142t168.5 157h67q-66 -76 -108.5 -154.5t-42.5 -134.5q0 -48 28.5 -73t71.5 -25q38 0 84 12l16 -51q-54 -22 -122 -22z" />
    <glyph glyph-name="tilde" unicode="&#x2dc;" horiz-adv-x="774" 
d="M129 1257l-27 35q90 142 191 142q47 0 118 -27t107 -27q39 0 64.5 12t58.5 42l31 -25q-43 -71 -82.5 -104t-100.5 -33q-51 0 -118.5 28.5t-106.5 28.5q-41 0 -72 -19t-63 -53z" />
    <glyph glyph-name="hungarumlaut" unicode="&#x2dd;" horiz-adv-x="815" 
d="M133 1165l-31 43l238 262h29l75 -106zM401 1165l-30 43l237 262h29l76 -106z" />
    <glyph glyph-name="gravecomb" unicode="&#x300;" 
d="M-121 1165l-430 178l55 127h29l365 -268z" />
    <glyph glyph-name="acutecomb" unicode="&#x301;" 
d="M-532 1165l-19 37l365 268h28l56 -127z" />
    <glyph glyph-name="uni0302" unicode="&#x302;" 
d="M-680 1171v72l272 227h33l273 -227v-72l-289 170z" />
    <glyph glyph-name="tildecomb" unicode="&#x303;" 
d="M-645 1257l-27 35q90 142 191 142q47 0 118 -27t107 -27q39 0 64.5 12t58.5 42l31 -25q-43 -71 -82.5 -104t-100.5 -33q-51 0 -118.5 28.5t-106.5 28.5q-41 0 -72 -19t-63 -53z" />
    <glyph glyph-name="uni0304" unicode="&#x304;" 
d="M-623 1280v94h521v-94h-521z" />
    <glyph glyph-name="uni0306" unicode="&#x306;" 
d="M-387 1171q-70 0 -125.5 25t-89.5 67.5t-52 95.5t-18 111h51q20 -86 78 -136t156 -50q190 0 233 186h52q0 -121 -77.5 -210t-207.5 -89z" />
    <glyph glyph-name="uni0307" unicode="&#x307;" 
d="M-209 1231q-44 0 -76 32t-32 76t32 76.5t76 32.5q43 0 75 -32.5t32 -76.5t-32 -76t-75 -32z" />
    <glyph glyph-name="uni0308" unicode="&#x308;" 
d="M-535 1227q-43 0 -73.5 30.5t-30.5 73.5t30.5 74t73.5 31q41 0 72 -31t31 -74t-31 -73.5t-72 -30.5zM-205 1227q-43 0 -73.5 30.5t-30.5 73.5t30.5 74t73.5 31q41 0 72 -31t31 -74t-31 -73.5t-72 -30.5z" />
    <glyph glyph-name="uni030A" unicode="&#x30a;" 
d="M-279 1161q-77 0 -126.5 49t-49.5 125q0 75 50.5 124.5t125.5 49.5q77 0 127 -49t50 -125q0 -75 -51 -124.5t-126 -49.5zM-279 1223q47 0 78 31.5t31 80.5t-31 81t-78 32t-77.5 -32t-30.5 -81t30.5 -80.5t77.5 -31.5z" />
    <glyph glyph-name="uni030B" unicode="&#x30b;" 
d="M-682 1165l-31 43l238 262h29l75 -106zM-414 1165l-30 43l237 262h29l76 -106z" />
    <glyph glyph-name="uni030C" unicode="&#x30c;" 
d="M-408 1171l-272 228v71l289 -170l289 170v-71l-273 -228h-33z" />
    <glyph glyph-name="uni0312" unicode="&#x312;" 
d="M-276 1143v51l141 260h33l-29 -311h-145z" />
    <glyph glyph-name="uni0326" unicode="&#x326;" 
d="M-276 -410l28 312h146v-52l-142 -260h-32z" />
    <glyph glyph-name="uni0327" unicode="&#x327;" 
d="M-307 -436q-61 0 -109.5 25t-77.5 67l39 31q54 -72 140 -72q62 0 92 33.5t30 79.5q0 51 -34.5 84.5t-94.5 33.5q-37 0 -73 -20l-39 43l76 145h98l-72 -118q18 6 47 6q73 0 128 -47.5t55 -120.5q0 -76 -57 -123t-148 -47z" />
    <glyph glyph-name="uni0328" unicode="&#x328;" 
d="M-225 -438q-96 0 -158.5 35.5t-62.5 113.5q0 71 59.5 142t167.5 157h67q-66 -76 -108.5 -154.5t-42.5 -134.5q0 -48 28.5 -73t71.5 -25q38 0 84 12l17 -51q-54 -22 -123 -22z" />
    <glyph glyph-name="Wgrave" unicode="&#x1e80;" horiz-adv-x="1961" 
d="M1155 1579l-430 178l55 127h29l365 -268zM631 -16l-51 2l-430 1362l-89 49v37h398v-33l-129 -53l319 -1043l273 795l-82 248l-95 49v37h381v-33l-106 -53l321 -1067l353 1067l-135 53v33h342v-37l-97 -49l-471 -1364h-63l-309 977z" />
    <glyph glyph-name="wgrave" unicode="&#x1e81;" horiz-adv-x="1568" 
d="M1020 1128l-430 179l55 127h29l364 -269zM453 -6l-322 903l-100 49v37h364v-33l-102 -53l229 -645l266 731h62v2l260 -741l240 653l-119 53v33h307v-37l-98 -49l-332 -903h-72l-254 719l-262 -719h-67z" />
    <glyph glyph-name="Wacute" unicode="&#x1e82;" horiz-adv-x="1961" 
d="M750 1579l-19 37l365 268h28l56 -127zM631 -16l-51 2l-430 1362l-89 49v37h398v-33l-129 -53l319 -1043l273 795l-82 248l-95 49v37h381v-33l-106 -53l321 -1067l353 1067l-135 53v33h342v-37l-97 -49l-471 -1364h-63l-309 977z" />
    <glyph glyph-name="wacute" unicode="&#x1e83;" horiz-adv-x="1568" 
d="M614 1128l-18 37l365 269h28l55 -127zM453 -6l-322 903l-100 49v37h364v-33l-102 -53l229 -645l266 731h62v2l260 -741l240 653l-119 53v33h307v-37l-98 -49l-332 -903h-72l-254 719l-262 -719h-67z" />
    <glyph glyph-name="Wdieresis" unicode="&#x1e84;" horiz-adv-x="1961" 
d="M791 1640q-43 0 -74 31t-31 74t31 73.5t74 30.5q41 0 71.5 -30.5t30.5 -73.5t-30.5 -74t-71.5 -31zM1120 1640q-43 0 -73.5 31t-30.5 74t30.5 73.5t73.5 30.5q42 0 72.5 -30.5t30.5 -73.5t-31 -74t-72 -31zM631 -16l-51 2l-430 1362l-89 49v37h398v-33l-129 -53
l319 -1043l273 795l-82 248l-95 49v37h381v-33l-106 -53l321 -1067l353 1067l-135 53v33h342v-37l-97 -49l-471 -1364h-63l-309 977z" />
    <glyph glyph-name="wdieresis" unicode="&#x1e85;" horiz-adv-x="1568" 
d="M655 1190q-43 0 -73.5 30.5t-30.5 73.5t30.5 74t73.5 31q41 0 72 -31t31 -74q0 -42 -31 -73t-72 -31zM985 1190q-43 0 -73.5 30.5t-30.5 73.5t30.5 74t73.5 31q41 0 71.5 -31t30.5 -74t-30.5 -73.5t-71.5 -30.5zM453 -6l-322 903l-100 49v37h364v-33l-102 -53l229 -645
l266 731h62v2l260 -741l240 653l-119 53v33h307v-37l-98 -49l-332 -903h-72l-254 719l-262 -719h-67z" />
    <glyph glyph-name="uni1E9E" unicode="&#x1e9e;" horiz-adv-x="1564" 
d="M1061 856q206 -97 293.5 -201t87.5 -272q0 -185 -133.5 -302.5t-362.5 -117.5q-88 0 -172 13t-129.5 26t-109.5 35l2 346h36l105 -238q122 -102 268 -102q145 0 236.5 78t91.5 217q0 58 -18 106t-44 81.5t-75.5 67.5t-90.5 55t-112 54q-47 22 -83 42t-77 51.5t-67.5 65.5
t-44 81.5t-17.5 101.5q0 95 54 166.5t134.5 105.5t170.5 34q37 0 55 -2q-106 47 -244 47q-93 0 -171 -26.5t-139 -79.5t-95.5 -140.5t-34.5 -202.5l2 -946h-275v37l101 49v885q0 99 38.5 188.5t110.5 159t184.5 110.5t251.5 41q136 0 254 -47.5t193 -124.5l-35 -51
q-93 43 -186 43q-87 0 -153 -47.5t-66 -132.5q0 -35 12.5 -65t32 -52.5t56.5 -47t72 -43t93 -46.5z" />
    <glyph glyph-name="uni1EBC" unicode="&#x1ebc;" horiz-adv-x="1280" 
d="M432 1671l-26 35q89 141 190 141q47 0 118 -26.5t107 -26.5q39 0 64.5 11.5t58.5 41.5l31 -24q-43 -72 -82 -104.5t-100 -32.5q-51 0 -119 28.5t-107 28.5q-41 0 -72 -19t-63 -53zM145 0v37l111 49l-2 1262l-111 49v37h938l31 -330h-37l-135 246h-512v-557l475 10v-107
l-475 17v-625h588l125 260h37l-21 -348h-1012z" />
    <glyph glyph-name="uni1EBD" unicode="&#x1ebd;" horiz-adv-x="1083" 
d="M326 1221l-27 34q90 142 190 142q47 0 118.5 -27t107.5 -27q39 0 64.5 12t58.5 42l30 -25q-43 -72 -82 -104.5t-100 -32.5q-51 0 -118.5 28.5t-106.5 28.5q-68 0 -135 -71zM596 -37q-108 0 -201.5 38t-163 107.5t-109.5 174t-40 231.5q0 107 39.5 201.5t106 161t157 105
t190.5 38.5q147 0 247 -65.5t142.5 -173t36.5 -246.5l-745 -3q0 -226 104 -352.5t275 -126.5q84 0 168 38.5t137 92.5l49 -51q-77 -81 -167.5 -125.5t-225.5 -44.5zM264 612h570q-5 153 -71 245.5t-200 92.5q-116 0 -200.5 -96.5t-98.5 -241.5z" />
    <glyph glyph-name="Ygrave" unicode="&#x1ef2;" horiz-adv-x="1359" 
d="M918 1579l-431 178l56 127h28l365 -268zM485 0v37l111 49v516l-446 746l-89 49v37h402v-33l-121 -53l391 -648l367 648l-150 53v33h348v-37l-84 -49l-446 -740v-522l117 -53v-33h-400z" />
    <glyph glyph-name="ygrave" unicode="&#x1ef3;" horiz-adv-x="1130" 
d="M784 1128l-430 179l56 127h28l365 -269zM166 -451v37l160 60l182 389l-377 862l-100 49v37h385v-33l-103 -53l285 -676l305 676l-119 53v33h316v-37l-99 -49l-571 -1251l143 -64v-33h-407z" />
    <glyph glyph-name="endash" unicode="&#x2013;" horiz-adv-x="1011" 
d="M41 487v134h930v-134h-930z" />
    <glyph glyph-name="emdash" unicode="&#x2014;" horiz-adv-x="1447" 
d="M41 487v134h1366v-134h-1366z" />
    <glyph glyph-name="quoteleft" unicode="&#x2018;" horiz-adv-x="450" 
d="M82 995v52l233 423h54l-101 -475h-186z" />
    <glyph glyph-name="quoteright" unicode="&#x2019;" horiz-adv-x="450" 
d="M82 958l100 476h187v-52l-234 -424h-53z" />
    <glyph glyph-name="quotesinglbase" unicode="&#x201a;" horiz-adv-x="450" 
d="M82 -303l100 475h187v-51l-234 -424h-53z" />
    <glyph glyph-name="quotedblleft" unicode="&#x201c;" horiz-adv-x="761" 
d="M82 995v52l233 423h54l-101 -475h-186zM393 995v52l234 423h53l-100 -475h-187z" />
    <glyph glyph-name="quotedblright" unicode="&#x201d;" horiz-adv-x="761" 
d="M82 958l100 476h187v-52l-234 -424h-53zM393 958l101 476h186v-52l-234 -424h-53z" />
    <glyph glyph-name="quotedblbase" unicode="&#x201e;" horiz-adv-x="761" 
d="M82 -303l100 475h187v-51l-234 -424h-53zM393 -303l101 475h186v-51l-234 -424h-53z" />
    <glyph glyph-name="dagger" unicode="&#x2020;" horiz-adv-x="704" 
d="M301 453l-8 639l-211 -13v125l211 -12l-8 242h135l-8 -242l211 12v-125l-211 13l-9 -639h-102z" />
    <glyph glyph-name="daggerdbl" unicode="&#x2021;" horiz-adv-x="704" 
d="M285 453l8 241l-211 -12v125l211 -12v297l-211 -13v125l211 -12l-8 242h135l-8 -242l211 12v-125l-211 13v-297l211 12v-125l-211 12l8 -241h-135z" />
    <glyph glyph-name="bullet" unicode="&#x2022;" horiz-adv-x="649" 
d="M326 481q-101 0 -172.5 71.5t-71.5 172.5q0 100 71.5 171t172.5 71q100 0 170.5 -71t70.5 -171q0 -101 -70.5 -172.5t-170.5 -71.5z" />
    <glyph glyph-name="ellipsis" unicode="&#x2026;" horiz-adv-x="1531" 
d="M193 -37q-46 0 -78.5 32.5t-32.5 78.5t32.5 78t78.5 32t78 -32t32 -78t-32 -78.5t-78 -32.5zM766 -37q-46 0 -78.5 32.5t-32.5 78.5t32.5 78t78.5 32t78.5 -32t32.5 -78t-32.5 -78.5t-78.5 -32.5zM1339 -37q-46 0 -78 32.5t-32 78.5t32 78t78 32t78.5 -32t32.5 -78
t-32.5 -78.5t-78.5 -32.5z" />
    <glyph glyph-name="perthousand" unicode="&#x2030;" horiz-adv-x="2129" 
d="M299 -100l831 1634h87l-828 -1634h-90zM389 770q-85 0 -147 50t-91 128.5t-28 171.5q2 146 71.5 248t194.5 102q85 0 147 -50t91 -128.5t28 -171.5q-2 -146 -71.5 -248t-194.5 -102zM389 823q72 0 114 86.5t42 210.5q0 126 -42 212.5t-114 86.5t-114 -86.5t-42 -212.5
q0 -124 42 -210.5t114 -86.5zM1126 -37q-85 0 -147 50t-91 128.5t-28 171.5q2 147 71.5 249t194.5 102q85 0 147 -50.5t91.5 -129t28.5 -171.5q-2 -146 -72 -248t-195 -102zM1741 -37q-85 0 -147 50t-91 128.5t-28 171.5q2 147 71.5 249t194.5 102q85 0 147 -50.5t91 -129
t28 -171.5q-2 -146 -71.5 -248t-194.5 -102zM1126 16q72 0 114 86.5t42 210.5q0 126 -42 212.5t-114 86.5t-113.5 -86.5t-41.5 -212.5q0 -125 41.5 -211t113.5 -86zM1741 16q72 0 113.5 86t41.5 211q0 126 -41.5 212.5t-113.5 86.5t-114 -86.5t-42 -212.5q0 -124 42 -210.5
t114 -86.5z" />
    <glyph glyph-name="guilsinglleft" unicode="&#x2039;" horiz-adv-x="550" 
d="M375 203l-273 375l277 360h70l-179 -367l179 -368h-74z" />
    <glyph glyph-name="guilsinglright" unicode="&#x203a;" horiz-adv-x="550" 
d="M102 203l179 368l-179 367h70l277 -360l-273 -375h-74z" />
    <glyph glyph-name="fraction" unicode="&#x2044;" horiz-adv-x="774" 
d="M10 2l680 1434h74l-682 -1434h-72z" />
    <glyph glyph-name="Euro" unicode="&#x20ac;" horiz-adv-x="1531" 
d="M1382 352l7 -319q-241 -70 -435 -70q-267 0 -451.5 150t-236.5 415h-143v93h131q-4 62 -4 96q0 45 2 65h-129v92h139q45 276 236 436t456 160q122 0 215 -14t207 -47l-6 -328h-37l-125 242q-112 74 -252 74q-214 0 -343.5 -142.5t-163.5 -380.5h557l-29 -92h-537
q-2 -23 -2 -65q0 -65 2 -96h498l-29 -93h-458q69 -481 505 -481q57 0 135 21t130 57l125 227h36z" />
    <glyph glyph-name="uni2116" unicode="&#x2116;" horiz-adv-x="2588" 
d="M1970 414q-141 0 -257.5 73t-181 196t-63.5 267q0 219 145.5 369.5t356.5 150.5q138 0 252 -70t179 -189.5t65 -260.5q0 -112 -39 -211.5t-105.5 -170.5t-158 -112.5t-193.5 -41.5zM1159 -18l-831 1323v-1219l121 -53v-33h-326v37l110 49v1262l-104 49v37h315l697 -1100
v1014l-121 49v37h326v-33l-111 -53v-1366h-76zM1970 485q83 0 146 38t99.5 104.5t54.5 147.5t18 175q0 92 -19 171t-56.5 142t-100 99.5t-142.5 36.5q-86 0 -150 -35.5t-100.5 -99t-53.5 -141.5t-17 -173q0 -97 17 -178t53 -147t100 -103t151 -37zM1950 -37
q-44 0 -76.5 32.5t-32.5 76.5t32.5 76t76.5 32q43 0 74.5 -32t31.5 -76t-31.5 -76.5t-74.5 -32.5z" />
    <glyph glyph-name="trademark" unicode="&#x2122;" horiz-adv-x="1513" 
d="M233 864v25l84 31v456h-133l-37 -88h-24v146h495v-146h-24l-37 88h-133v-456l82 -31v-25h-273zM692 864v25l72 31v458l-51 31v25h157l172 -424l181 424h159v-25l-67 -31v-458l76 -31v-25h-250v25l71 31v346l-168 -402h-38l-170 406v-350l77 -31v-25h-221z" />
    <glyph glyph-name="minus" unicode="&#x2212;" horiz-adv-x="1058" 
d="M10 543v106h1039v-106h-1039z" />
    <glyph glyph-name="i.loclTRK" horiz-adv-x="544" 
d="M283 1194q-44 0 -76.5 32.5t-32.5 76.5t32.5 76t76.5 32q43 0 74.5 -32t31.5 -76t-31.5 -76.5t-74.5 -32.5zM354 86l99 -53v-33h-351v37l101 49v809l-94 51v35l245 10v-905z" />
    <glyph glyph-name="zero.osf" horiz-adv-x="1208" 
d="M604 -37q-197 0 -318.5 147.5t-121.5 399.5t121.5 399.5t318.5 147.5q193 0 316.5 -144t123.5 -403t-123.5 -403t-316.5 -144zM604 23q128 0 199 130.5t71 356.5t-71 356.5t-199 130.5t-198 -129.5t-70 -357.5t70 -357.5t198 -129.5z" />
    <glyph glyph-name="one.osf" horiz-adv-x="870" 
d="M217 0v37l168 49v774h-201v39l336 121h19v-934l157 -53v-33h-479z" />
    <glyph glyph-name="two.osf" horiz-adv-x="1126" 
d="M184 0v115l412 352q89 75 127.5 147t38.5 162q0 95 -60 157t-155 62q-63 0 -116 -20t-81 -51l-88 -207h-37l-6 278q59 20 86 28.5t97.5 21t144.5 12.5q171 0 273 -81t102 -216q0 -108 -56 -197t-170 -170l-364 -260h491l82 176h37v-309h-758z" />
    <glyph glyph-name="three.osf" horiz-adv-x="1140" 
d="M481 -451q-59 0 -115 7.5t-80.5 13t-79.5 22.5t-63 19l7 328h36l109 -258q78 -72 186 -72q130 0 210.5 111t80.5 272q0 167 -107 252.5t-296 85.5v73h47q138 0 230.5 91t92.5 231q0 112 -67 191t-180 79q-123 0 -187 -71l-88 -207h-37l-6 278q175 62 338 62
q175 0 283 -86t108 -230q0 -136 -75.5 -232.5t-198.5 -119.5q156 -23 241.5 -129.5t85.5 -263.5q0 -193 -130.5 -320t-344.5 -127z" />
    <glyph glyph-name="four.osf" horiz-adv-x="1101" 
d="M676 -412v412h-574v94l607 926h120v-926h170v-94h-170v-412h-153zM203 92h473v719z" />
    <glyph glyph-name="five.osf" horiz-adv-x="1189" 
d="M510 -449q-148 0 -326 82l6 291h37l109 -248q77 -55 174 -55q67 0 121.5 21t91.5 57t61.5 86.5t35.5 107.5t11 121q0 165 -86.5 278.5t-218.5 113.5q-137 0 -225 -109l-68 41l15 684h670v-158h-590l-9 -452q103 82 252 82q122 0 222.5 -61t156.5 -164t56 -226
q0 -133 -61.5 -245t-176 -179.5t-258.5 -67.5z" />
    <glyph glyph-name="six.osf" horiz-adv-x="1224" 
d="M623 -37q-95 0 -172 43.5t-125.5 112.5t-81.5 159.5t-46.5 178.5t-13.5 176q0 172 33.5 321.5t97 265.5t165.5 183t229 67q132 0 264 -61l-6 -272h-37l-90 229q-59 39 -135 39q-73 0 -132 -43t-95.5 -109t-63 -155t-38 -170t-16.5 -166q47 57 115.5 90t149.5 33
q186 0 300.5 -129.5t114.5 -327.5q0 -199 -117.5 -332t-299.5 -133zM637 23q67 0 115 34.5t73.5 94.5t37 128t11.5 148q0 71 -17 138.5t-49 125t-86 92.5t-122 35q-138 0 -240 -135q-4 -58 -4 -98q0 -125 15.5 -224.5t48 -177t87.5 -119.5t130 -42z" />
    <glyph glyph-name="seven.osf" horiz-adv-x="1220" 
d="M381 -412q0 155 37 314t94.5 290t137.5 262t154.5 226.5t158.5 187.5h-662l-111 -172h-36l14 326h899v-119q-100 -114 -187.5 -257.5t-157.5 -311.5t-110.5 -361.5t-40.5 -384.5h-190z" />
    <glyph glyph-name="eight.osf" horiz-adv-x="1236" 
d="M733 799q87 -43 145 -81.5t104.5 -88t68.5 -110.5t22 -138q0 -181 -130.5 -299.5t-338.5 -118.5q-191 0 -315.5 103.5t-124.5 265.5q0 76 25 141t71 115.5t99.5 88.5t123.5 73q-131 81 -189 171t-58 205q0 153 111 248.5t278 95.5q156 0 267.5 -89t111.5 -234
q0 -120 -73 -206.5t-198 -141.5zM375 1157q0 -99 64 -171.5t231 -156.5q100 59 152 140.5t52 173.5q0 119 -70.5 190.5t-182.5 71.5q-107 0 -176.5 -67.5t-69.5 -180.5zM606 23q139 0 230.5 87.5t91.5 215.5q0 53 -15 96.5t-40 77.5t-70 67.5t-91.5 59.5t-117.5 61
q-28 14 -33 17q-127 -64 -196.5 -154.5t-69.5 -220.5q0 -124 83.5 -215.5t227.5 -91.5z" />
    <glyph glyph-name="nine.osf" horiz-adv-x="1224" 
d="M516 -451q-130 0 -264 62l6 272h37l90 -229q59 -39 135 -39q61 0 112.5 29.5t87 81t62.5 114.5t43.5 138t25.5 143t13 137q-101 -123 -264 -123q-186 0 -301 129.5t-115 327.5q0 199 118 332t300 133q80 0 147 -30t113.5 -82.5t82 -118.5t55.5 -143t30 -150.5t10 -145.5
q0 -172 -33.5 -322t-97 -266t-165 -183t-228.5 -67zM625 201q137 0 239 135q4 58 4 98q0 125 -15.5 224.5t-47.5 177t-87 119.5t-130 42q-67 0 -115.5 -34.5t-74 -94.5t-37 -128t-11.5 -148q0 -71 17 -138.5t49.5 -125t86.5 -92.5t122 -35z" />
    <glyph glyph-name="exclamdown.case" horiz-adv-x="589" 
d="M295 1249q-46 0 -78.5 32.5t-32.5 78.5t32.5 78t78.5 32t78.5 -32t32.5 -78t-32.5 -78.5t-78.5 -32.5zM203 0l65 1067h51l64 -1067h-180z" />
    <glyph glyph-name="questiondown.case" horiz-adv-x="919" 
d="M549 1249q-46 0 -78.5 32.5t-32.5 78.5t32.5 78t78.5 32t78 -32t32 -78t-32 -78.5t-78 -32.5zM500 -37q-163 0 -270 87t-107 229q0 77 21.5 138t56 103t76 80.5t83.5 80.5t76.5 91t56 124.5t21.5 170.5h74q0 -127 -30 -226.5t-72 -162t-84.5 -117.5t-72.5 -123t-30 -149
q0 -108 64 -182t165 -74q72 0 129 47l97 213h37l6 -268q-151 -62 -297 -62z" />
    <glyph glyph-name="periodcentered.case" horiz-adv-x="385" 
d="M193 666q-46 0 -78.5 32t-32.5 78t32.5 78.5t78.5 32.5t78 -32.5t32 -78.5t-32 -78t-78 -32z" />
    <glyph glyph-name="parenleft.case" horiz-adv-x="997" 
d="M834 -272q-150 38 -279.5 125.5t-225.5 211.5t-151 287.5t-55 343.5t55 343.5t151 287.5t225.5 212t279.5 126v-45q-239 -84 -395 -337t-156 -587t156 -586.5t395 -336.5v-45z" />
    <glyph glyph-name="parenright.case" horiz-adv-x="997" 
d="M164 -272v45q239 84 395 336.5t156 586.5t-156 587t-395 337v45q150 -38 279.5 -126t225 -212t150.5 -287t55 -344q0 -180 -55 -343.5t-150.5 -287.5t-225 -211.5t-279.5 -125.5z" />
    <glyph glyph-name="braceleft.case" horiz-adv-x="858" 
d="M694 -272l-127 26q-136 29 -200 95t-64 196v440q0 95 -51.5 143t-128.5 48v41q77 0 128.5 47.5t51.5 142.5v441q0 130 64 195.5t200 94.5l127 27v-45l-67 -25q-83 -31 -126.5 -98t-43.5 -184v-387q0 -97 -39.5 -152.5t-122.5 -77.5q83 -22 122.5 -77t39.5 -152v-387
q0 -117 43.5 -184.5t126.5 -98.5l67 -24v-45z" />
    <glyph glyph-name="braceright.case" horiz-adv-x="858" 
d="M164 -272v45l67 24q83 31 126.5 98.5t43.5 184.5v387q0 97 39.5 152t122.5 77q-83 22 -122.5 77.5t-39.5 152.5v387q0 117 -43.5 184t-126.5 98l-67 25v45l127 -27q136 -29 200 -94.5t64 -195.5v-441q0 -95 51.5 -142.5t128.5 -47.5v-41q-77 0 -128.5 -48t-51.5 -143
v-440q0 -130 -64 -196t-200 -95z" />
    <glyph glyph-name="bracketleft.case" horiz-adv-x="698" 
d="M123 -272v1937h412v-37l-259 -65v-1733l259 -66v-36h-412z" />
    <glyph glyph-name="bracketright.case" horiz-adv-x="698" 
d="M164 -272v36l258 66v1733l-258 65v37h411v-1937h-411z" />
    <glyph glyph-name="hyphen.case" horiz-adv-x="579" 
d="M61 696v90h457v-90h-457z" />
    <glyph glyph-name="endash.case" horiz-adv-x="1011" 
d="M41 672v133h930v-133h-930z" />
    <glyph glyph-name="emdash.case" horiz-adv-x="1447" 
d="M41 672v133h1366v-133h-1366z" />
    <glyph glyph-name="guillemotleft.case" horiz-adv-x="858" 
d="M682 367l-272 374l276 361h70l-178 -367l178 -368h-74zM375 362l-273 375l277 361h70l-179 -367l179 -369h-74z" />
    <glyph glyph-name="guillemotright.case" horiz-adv-x="858" 
d="M102 367l179 368l-179 367h70l277 -361l-273 -374h-74zM410 367l178 368l-178 367h69l277 -361l-273 -374h-73z" />
    <glyph glyph-name="guilsinglleft.case" horiz-adv-x="550" 
d="M375 362l-273 375l277 361h70l-179 -367l179 -369h-74z" />
    <glyph glyph-name="guilsinglright.case" horiz-adv-x="550" 
d="M102 367l179 368l-179 367h70l277 -361l-273 -374h-74z" />
    <glyph glyph-name="ampersand.ss01" horiz-adv-x="1429" 
d="M1393 96l16 -39q-35 -38 -104.5 -66t-133.5 -28q-130 0 -229 92l-51 49q-147 -141 -359 -141q-225 0 -348 115t-123 307q0 150 95 258t241 145q-108 211 -108 359q0 151 108 237t275 86q157 0 319 -61l-6 -328h-37l-78 236q-35 37 -88.5 59.5t-111.5 22.5
q-98 0 -150.5 -57t-52.5 -158q0 -158 150.5 -416t343.5 -467l137 361l-135 53v33h405v-37l-119 -49l-237 -414q182 -182 274 -182q60 0 107 30zM557 51q169 0 291 101q-259 288 -418 573q-88 -49 -136 -135t-48 -191q0 -156 89.5 -252t221.5 -96z" />
    <glyph glyph-name="caron.alt" horiz-adv-x="364" 
d="M102 1102v332h160v-52l-127 -280h-33z" />
    </font>
</defs>
</svg>
